<?xml version="1.0" standalone="no"?>
<!DOCTYPE svg PUBLIC "-//W3C//DTD SVG 1.1//EN" "http://www.w3.org/Graphics/SVG/1.1/DTD/svg11.dtd" >
<svg xmlns="http://www.w3.org/2000/svg">
<metadata>Generated by IcoMoon</metadata>
<defs>
<font id="icomoon" horiz-adv-x="1024">
<font-face units-per-em="1024" ascent="960" descent="-64" />
<missing-glyph horiz-adv-x="1024" />
<glyph unicode="&#x20;" horiz-adv-x="512" d="" />
<glyph unicode="&#xe900;" glyph-name="cart-round" d="M149.962 85.962c-92.635 92.146-149.964 219.705-149.964 360.655 0 0.486 0.001 0.972 0.002 1.458v-0.075c-0.001 0.404-0.002 0.882-0.002 1.361 0 140.957 57.329 268.523 149.942 360.655l0.022 0.021c92.154 92.635 219.72 149.964 360.677 149.964 0.479 0 0.957-0.001 1.435-0.002h-0.074c0.404 0.001 0.882 0.002 1.361 0.002 140.957 0 268.523-57.329 360.655-149.942l0.021-0.022c92.635-92.154 149.964-219.72 149.964-360.677 0-0.479-0.001-0.957-0.002-1.435v0.074c0.001-0.407 0.002-0.89 0.002-1.372 0-140.953-57.329-268.516-149.942-360.644l-0.022-0.022c-92.154-92.635-219.72-149.964-360.677-149.964-0.479 0-0.957 0.001-1.435 0.002h0.074c-0.404-0.001-0.882-0.002-1.361-0.002-140.957 0-268.523 57.329-360.655 149.942l-0.021 0.022zM53.895 448c0.291-252.887 205.218-457.814 458.077-458.105h0.029c252.887 0.291 457.814 205.218 458.105 458.077v0.029c-0.307 252.881-205.224 457.799-458.076 458.105h-0.030c-252.881-0.307-457.799-205.224-458.105-458.076v-0.030zM399.037 232.421c-28.37 0.616-51.868 20.74-57.649 47.461l-0.072 0.397-43.628 216.819c-0.803 3.283-1.264 7.052-1.264 10.929 0 11.413 3.993 21.894 10.658 30.121l-0.070-0.090c8.765 10.856 22.072 17.742 36.988 17.742 0.354 0 0.708-0.004 1.060-0.012l-0.053 0.001h59.473c0 59.53 48.259 107.789 107.789 107.789v0c59.53 0 107.789-48.259 107.789-107.789v0h59.284c0.289 0.006 0.63 0.010 0.972 0.010 14.943 0 28.279-6.883 37.008-17.652l0.070-0.089c6.587-8.155 10.574-18.647 10.574-30.071 0-3.862-0.456-7.618-1.316-11.216l0.066 0.327-43.655-216.819c-5.846-27.093-29.303-47.204-57.57-47.857l-0.070-0.001zM399.037 286.316h225.873c2.722 0.441 4.929 2.281 5.884 4.745l0.018 0.052 9.971 49.098h-257.482l9.863-49.098c0.977-2.523 3.195-4.365 5.885-4.791l0.043-0.006zM372.44 394.105h279.256l21.827 107.951-322.695-0.162zM458.213 555.789h107.682c0 29.765-24.129 53.895-53.895 53.895v0c-29.696-0.092-53.733-24.186-53.733-53.894 0 0 0 0 0 0v0z" />
<glyph unicode="&#xe901;" glyph-name="question-round" d="M149.962 85.962c-92.635 92.146-149.964 219.705-149.964 360.655 0 0.486 0.001 0.972 0.002 1.458v-0.075c-0.001 0.404-0.002 0.882-0.002 1.361 0 140.957 57.329 268.523 149.942 360.655l0.022 0.021c92.154 92.635 219.72 149.964 360.677 149.964 0.479 0 0.957-0.001 1.435-0.002h-0.074c0.404 0.001 0.882 0.002 1.361 0.002 140.957 0 268.523-57.329 360.655-149.942l0.021-0.022c92.635-92.154 149.964-219.72 149.964-360.677 0-0.479-0.001-0.957-0.002-1.435v0.074c0.001-0.407 0.002-0.89 0.002-1.372 0-140.953-57.329-268.516-149.942-360.644l-0.022-0.022c-92.154-92.635-219.72-149.964-360.677-149.964-0.479 0-0.957 0.001-1.435 0.002h0.074c-0.404-0.001-0.882-0.002-1.361-0.002-140.957 0-268.523 57.329-360.655 149.942l-0.021 0.022zM53.895 448c0.291-252.887 205.218-457.814 458.077-458.105h0.029c252.887 0.291 457.814 205.218 458.105 458.077v0.029c-0.307 252.881-205.224 457.799-458.076 458.105h-0.030c-252.881-0.307-457.799-205.224-458.105-458.076v-0.030zM485.053 259.368c0 14.883 12.065 26.947 26.947 26.947v0c14.883 0 26.947-12.065 26.947-26.947v0c0-14.883-12.065-26.947-26.947-26.947v0c-14.883 0-26.947 12.065-26.947 26.947v0zM485.053 367.158v53.895c0 14.883 12.065 26.947 26.947 26.947v0c44.648 0 80.842 36.194 80.842 80.842v0c0 44.648-36.194 80.842-80.842 80.842v0c-44.648 0-80.842-36.194-80.842-80.842v0c0-14.883-12.065-26.947-26.947-26.947v0c-14.883 0-26.947 12.065-26.947 26.947v0c0 74.413 60.324 134.737 134.737 134.737v0c0.017 0 0.036 0 0.056 0 69.668 0 126.986-52.876 134.013-120.685l0.049-0.578c0.431-4.045 0.677-8.739 0.677-13.49 0-64.895-45.878-119.074-106.97-131.873l-0.877-0.154v-29.642c0-14.883-12.065-26.947-26.947-26.947v0c-14.883 0-26.947 12.065-26.947 26.947v0z" />
<glyph unicode="&#xe902;" glyph-name="user-round" d="M149.962 85.962c-92.635 92.146-149.964 219.705-149.964 360.655 0 0.486 0.001 0.972 0.002 1.458v-0.075c-0.001 0.404-0.002 0.882-0.002 1.361 0 140.957 57.329 268.523 149.942 360.655l0.022 0.021c92.154 92.635 219.72 149.964 360.677 149.964 0.479 0 0.957-0.001 1.435-0.002h-0.074c0.404 0.001 0.882 0.002 1.361 0.002 140.957 0 268.523-57.329 360.655-149.942l0.021-0.022c92.635-92.154 149.964-219.72 149.964-360.677 0-0.479-0.001-0.957-0.002-1.435v0.074c0.001-0.407 0.002-0.89 0.002-1.372 0-140.953-57.329-268.516-149.942-360.644l-0.022-0.022c-92.154-92.635-219.72-149.964-360.677-149.964-0.479 0-0.957 0.001-1.435 0.002h0.074c-0.404-0.001-0.882-0.002-1.361-0.002-140.957 0-268.523 57.329-360.655 149.942l-0.021 0.022zM53.895 448c0.291-252.887 205.218-457.814 458.077-458.105h0.029c252.887 0.291 457.814 205.218 458.105 458.077v0.029c-0.307 252.881-205.224 457.799-458.076 458.105h-0.030c-252.881-0.307-457.799-205.224-458.105-458.076v-0.030zM646.737 259.368c0 74.413-60.324 134.737-134.737 134.737v0c-74.413 0-134.737-60.324-134.737-134.737v0c0-14.883-12.065-26.947-26.947-26.947v0c-14.883 0-26.947 12.065-26.947 26.947v0c0 0.036 0 0.078 0 0.12 0 72.124 40.519 134.785 100.035 166.46l1.017 0.494c-28.938 24.804-47.158 61.395-47.158 102.242 0 0.056 0 0.111 0 0.167v-0.009c0 74.413 60.324 134.737 134.737 134.737v0c74.413 0 134.737-60.324 134.737-134.737v0c0-0.043 0-0.094 0-0.145 0-40.851-18.22-77.446-46.977-102.103l-0.181-0.152c60.538-32.218 101.053-94.912 101.053-167.068 0-0.002 0-0.004 0-0.006v0c0-14.883-12.065-26.947-26.947-26.947v0c-14.883 0-26.947 12.065-26.947 26.947v0zM431.158 528.842c0-44.648 36.194-80.842 80.842-80.842v0c44.648 0 80.842 36.194 80.842 80.842v0c0 44.648-36.194 80.842-80.842 80.842v0c-44.648 0-80.842-36.194-80.842-80.842v0z" />
<glyph unicode="&#xe903;" glyph-name="wishlist-round" d="M149.962 85.962c-92.635 92.146-149.964 219.705-149.964 360.655 0 0.486 0.001 0.972 0.002 1.458v-0.075c-0.001 0.404-0.002 0.882-0.002 1.361 0 140.957 57.329 268.523 149.942 360.655l0.022 0.021c92.154 92.635 219.72 149.964 360.677 149.964 0.479 0 0.957-0.001 1.435-0.002h-0.074c0.404 0.001 0.882 0.002 1.361 0.002 140.957 0 268.523-57.329 360.655-149.942l0.021-0.022c92.635-92.154 149.964-219.72 149.964-360.677 0-0.479-0.001-0.957-0.002-1.435v0.074c0.001-0.407 0.002-0.89 0.002-1.372 0-140.953-57.329-268.516-149.942-360.644l-0.022-0.022c-92.154-92.635-219.72-149.964-360.677-149.964-0.479 0-0.957 0.001-1.435 0.002h0.074c-0.404-0.001-0.882-0.002-1.361-0.002-140.957 0-268.523 57.329-360.655 149.942l-0.021 0.022zM53.895 448c0.291-252.887 205.218-457.814 458.077-458.105h0.029c252.887 0.291 457.814 205.218 458.105 458.077v0.029c-0.307 252.881-205.224 457.799-458.076 458.105h-0.030c-252.881-0.307-457.799-205.224-458.105-458.076v-0.030zM477.507 244.844c-5.659 4.716-15.144 12.962-27.217 23.875-19.995 18.243-39.99 37.726-58.799 58.045-18.712 19.869-36.348 41.345-52.473 63.971l-1.26 1.861c-23.487 29.649-38.604 66.891-41.253 107.534l-0.030 0.579c-0.061 1.485-0.095 3.228-0.095 4.979 0 36.38 14.879 69.284 38.884 92.96l0.015 0.015c23.922 23.43 56.709 37.889 92.873 37.889 31.896 0 61.164-11.247 84.056-29.991l-0.235 0.187c22.65 18.585 51.924 29.85 83.829 29.85 36.17 0 68.958-14.478 92.886-37.955l-0.021 0.020c23.949-23.7 38.779-56.574 38.779-92.912 0-1.631-0.030-3.255-0.089-4.872l0.007 0.234c-2.606-41.341-17.766-78.703-41.671-108.809l0.307 0.4c-17.371-24.562-35.063-46.102-54.158-66.302l0.264 0.281c-18.863-20.211-38.723-39.801-58.691-58.045-12.045-10.995-21.558-19.133-27.217-23.875-9.215-7.655-21.159-12.31-34.189-12.342h-0.007c-0.022 0-0.047 0-0.073 0-13.127 0-25.158 4.693-34.506 12.493l0.086-0.070zM373.113 560.317c-14.2-13.979-22.999-33.41-22.999-54.896 0-1.335 0.034-2.662 0.101-3.98l-0.008 0.185c-1.078-80.384 161.684-215.229 161.684-215.229s162.681 134.737 161.684 215.283c0.059 1.126 0.093 2.445 0.093 3.772 0 21.483-8.833 40.902-23.065 54.825l-0.014 0.014c-14.249 14.037-33.821 22.705-55.417 22.705s-41.169-8.668-55.427-22.714l0.010 0.010-27.837-27.54-27.837 27.54c-14.253 13.996-33.808 22.636-55.38 22.636-0.027 0-0.055 0-0.082 0h0.004c-0.041 0-0.089 0-0.137 0-21.566 0-41.116-8.628-55.388-22.622l0.013 0.013z" />
<glyph unicode="&#xe904;" glyph-name="chevron-down" horiz-adv-x="1638" d="M614.4-64v204.8h-204.8v204.8h-204.8v204.8h-204.8v409.6h409.6v-204.8h204.8v-204.8h409.6v204.8h204.8v204.8h409.6v-409.6h-204.8v-204.8h-204.8v-204.8h-204.8v-204.8z" />
<glyph unicode="&#xe905;" glyph-name="checkmark" horiz-adv-x="1408" d="M384-64v128h-128v128h-128v128h-128v256h256v-128h128v-128h256v128h128v128h128v128h128v128h128v128h256v-256h-128v-128h-128v-128h-128v-128h-128v-128h-128v-128h-128v-128z" />
<glyph unicode="&#xe906;" glyph-name="search" d="M915.2-44.8c11.488-11.727 27.487-18.997 45.184-18.997s33.696 7.27 45.173 18.987l0.011 0.011c11.576 11.772 18.724 27.931 18.724 45.76s-7.147 33.988-18.732 45.769l-197.111 197.111c55.34 73.691 88.621 166.704 88.621 267.489 0 247.424-200.576 448-448 448s-448-200.576-448-448c0-247.424 200.576-448 448-448 101.229 0 194.616 33.574 269.633 90.194l-1.134-0.82 197.632-197.504zM128 511.552c0.182 176.593 143.381 319.68 320 319.68 176.731 0 320-143.269 320-320 0-176.596-143.050-319.781-319.595-320h-0.021c-0.114 0-0.249 0-0.384 0-176.731 0-320 143.269-320 320 0 0.113 0 0.225 0 0.338v-0.017z" />
<glyph unicode="&#xe907;" glyph-name="star" horiz-adv-x="1092" d="M251.564-63.727c-0.028 0-0.061 0-0.094 0-15.31 0-29.486 4.857-41.071 13.114l0.217-0.147c-17.397 12.418-28.604 32.536-28.604 55.271 0 6.167 0.825 12.142 2.37 17.82l-0.11-0.475 79.646 289.783-237.982 188.366c-15.838 12.365-25.925 31.459-25.925 52.909 0 7.537 1.245 14.783 3.542 21.544l-0.139-0.472c9.117 26.625 33.316 45.689 62.152 47.085l0.159 0.006 306.094 15.492 109.198 279.819c10.67 25.837 35.668 43.688 64.836 43.688s54.166-17.851 64.666-43.224l0.17-0.464 109.675-279.819 306.026-15.492c29.002-1.434 53.205-20.48 62.233-46.604l0.146-0.487c2.153-6.293 3.396-13.544 3.396-21.084 0-21.416-10.025-40.491-25.638-52.788l-0.143-0.109-237.846-188.366 79.509-289.51c1.478-5.278 2.327-11.339 2.327-17.599 0-22.706-11.178-42.801-28.331-55.083l-0.204-0.139c-11.34-8.112-25.488-12.97-40.772-12.97-13.989 0-27.028 4.071-37.996 11.092l0.283-0.169-257.024 163.796-257.024-163.796c-10.662-6.887-23.689-10.983-37.672-10.988h-0.001z" />
<glyph unicode="&#xe908;" glyph-name="youtube" horiz-adv-x="1463" d="M1432.722 799.744c-17.446 62.939-66.012 111.505-127.662 128.645l-1.288 0.306c-114.469 31.305-572.343 31.305-572.343 31.305s-457.874 0-572.343-30.135c-62.816-18.33-111.178-67.079-128.633-128.804l-0.318-1.317c-19.193-102.209-30.171-219.793-30.171-339.941 0-4.15 0.013-8.298 0.039-12.442l-0.003 0.638c-0.026-3.687-0.040-8.048-0.040-12.412 0-119.935 10.979-237.306 31.988-351.162l-1.813 11.83c17.459-62.931 66.019-111.491 127.662-128.645l1.289-0.306c115.639-31.305 572.343-31.305 572.343-31.305s457.874 0 572.343 30.135c62.923 17.433 111.483 65.969 128.645 127.589l0.306 1.289c19.193 102.23 30.171 219.839 30.171 340.012 0 4.151-0.013 8.299-0.039 12.443l0.003-0.638c0.079 6.33 0.124 13.808 0.124 21.297 0 117.24-11.011 231.909-32.056 343.028l1.797-11.41zM585.655 228.718v438.857l380.782-219.429z" />
<glyph unicode="&#xe909;" glyph-name="map" horiz-adv-x="1138" d="M113.778 697.36v-523.804l170.667 103.748v512.028l-170.667-91.973zM739.556 106.667v512l-341.333 170.667v-512.028l341.333-170.638zM853.333 106.667l170.934 91.972v523.804l-170.934-103.805v-511.972zM339.937 960l462.521-234.639 335.588 194.566v-786.841l-339.94-197.086-462.518 234.638-335.588-194.566v786.84l339.937 197.088z" />
<glyph unicode="&#xe90a;" glyph-name="mail" horiz-adv-x="1329" d="M128 766.734l512.006-341.338 511.949 341.298v65.306h-1023.955v-65.266zM128 612.897v-548.897h1023.955v548.857l-476.448-317.631c-21.498-14.33-49.503-14.33-71.001 0l-476.506 317.672zM1279.955 735.304v-726.158c0-40.064-32.16-73.146-71.11-73.146h-1137.736c-38.947 0-71.108 33.082-71.108 73.146v877.711c0 40.061 32.161 73.143 71.108 73.143h1137.736c38.95 0 71.11-33.082 71.11-73.143v-151.553c0.077 1.841 0.077-1.848 0 0z" />
<glyph unicode="&#xe90b;" glyph-name="phone" horiz-adv-x="717" d="M0 857.6c0 56.55 45.85 102.4 102.4 102.4h512c56.55 0 102.4-45.85 102.4-102.4v-819.2c0-56.55-45.85-102.4-102.4-102.4h-512c-56.55 0-102.4 45.85-102.4 102.4v819.2zM614.4 857.6h-512v-819.2h512v819.2zM358.4 140.8c28.275 0 51.2 22.927 51.2 51.2s-22.925 51.2-51.2 51.2c-28.275 0-51.2-22.927-51.2-51.2s22.925-51.2 51.2-51.2z" />
<glyph unicode="&#xe90c;" glyph-name="facebook" horiz-adv-x="512" d="M307.149 601.395v128c5.082 40.205 36.595 71.719 76.364 76.755l0.436 0.045h76.8v153.6h-128c-100.653-7.153-179.598-90.564-179.598-192.413 0-4.358 0.145-8.683 0.429-12.969l-0.031 0.582v-153.6h-153.6v-153.6h153.6v-512h153.6v512h128l76.8 153.6z" />
<glyph unicode="&#xe90d;" glyph-name="twitter" horiz-adv-x="1280" d="M1280 838.784c-44.010-19.456-95.071-33.81-148.504-40.551l-2.728-0.281c54.126 31.963 94.885 81.667 114.674 140.965l0.526 1.819c-47.934-28.476-103.696-50.181-163.030-61.97l-3.37-0.558c-48.31 50.442-116.206 81.792-191.423 81.792 0 0-0.001 0-0.001 0v0c-0.253 0.001-0.553 0.001-0.853 0.001-144.283 0-261.248-116.965-261.248-261.248 0-19.89 2.223-39.261 6.433-57.878l-0.332 1.748c-218 10.457-410.161 112.889-539.876 269.048l-0.988 1.224c-22.604-37.398-35.979-82.572-35.979-130.87 0-89.563 45.994-168.384 115.65-214.132l0.969-0.598c-43.643 1.24-84.292 12.947-119.871 32.684l1.343-0.684v-2.816c0.897-125.361 90.17-229.614 208.568-253.605l1.672-0.283c-20.032-5.411-43.031-8.52-66.757-8.52-0.718 0-1.436 0.003-2.153 0.009l0.11-0.001c-1.217-0.023-2.652-0.036-4.090-0.036-16.126 0-31.873 1.621-47.087 4.708l1.513-0.256c35.739-103.836 131.545-177.562 244.9-179.963l0.284-0.005c-88.787-68.714-201.714-110.145-324.319-110.145-0.44 0-0.879 0.001-1.318 0.002h0.069c-0.891-0.006-1.944-0.009-2.998-0.009-21.071 0-41.837 1.306-62.222 3.84l2.436-0.247c113.247-72.75 251.48-115.973 399.807-115.973 0.968 0 1.935 0.002 2.902 0.006h-0.149c3.236-0.051 7.055-0.080 10.88-0.080 406.24 0 735.608 329.127 736 735.275v0.037c0 11.392-0.384 22.464-0.96 33.408 51.907 36.835 95.567 81.33 130.365 132.351l1.155 1.793z" />
<glyph unicode="&#xe90e;" glyph-name="pinterest" horiz-adv-x="819" d="M423.322 960c-276.378 0-423.526-179.866-423.526-375.962 0-90.931 50.022-204.339 130.15-240.333 12.186-5.581 18.79-3.226 21.504 8.243 2.406 8.704 12.902 50.637 18.022 70.4 0.475 1.552 0.748 3.336 0.748 5.184 0 4.901-1.923 9.352-5.056 12.641l0.007-0.007c-29.626 38.876-47.505 88.098-47.616 141.491v0.026c1.967 149.549 123.658 270.024 273.488 270.024 5.555 0 11.072-0.166 16.546-0.492l-0.754 0.036c157.542 0 267.776-103.936 267.776-252.621 0-167.987-87.552-284.262-201.267-284.262-1.835-0.132-3.976-0.207-6.134-0.207-50.305 0-91.085 40.78-91.085 91.085 0 7.596 0.93 14.976 2.682 22.030l-0.132-0.627c21.391 58.261 39.868 127.793 52.16 199.439l1.037 7.307c0.291 2.546 0.458 5.497 0.458 8.486 0 43.575-35.324 78.899-78.899 78.899-0.863 0-1.723-0.014-2.579-0.041l0.125 0.003c-64.102 0-116.070-64.461-116.070-150.989-0.011-0.828-0.018-1.807-0.018-2.786 0-32.378 7.060-63.107 19.725-90.732l-0.558 1.358s-63.386-260.096-75.162-308.685c-4.489-29.814-7.053-64.218-7.053-99.221 0-45.131 4.262-89.267 12.406-132.027l-0.694 4.381c0.285-3.411 3.123-6.071 6.583-6.071 2.285 0 4.299 1.16 5.485 2.924l0.015 0.024c41.585 57.475 76.833 123.47 102.551 194.046l1.795 5.634c7.834 29.235 39.885 147.866 39.885 147.866 31.882-43.427 82.741-71.303 140.111-71.303 2.403 0 4.794 0.049 7.174 0.146l-0.341-0.011c193.075 0 332.8 172.339 332.8 386.253-1.126 204.851-173.926 358.451-396.288 358.451z" />
<glyph unicode="&#xe90f;" glyph-name="wrench" d="M834.526 72.533l18.807 18.807-220.126 220.126-18.807-18.807zM868.659 106.667l18.807 18.807-220.126 220.126-18.807-18.807zM491.861 448l20.139 20.139-321.195 321.195-20.139-20.139zM204.8 755.2h-91.785l-78.882 118.238 52.463 52.429 118.204-78.916zM130.901 788.378h40.721v40.789l-80.794 53.999-13.926-13.926zM949.248-64h-78.848l-392.533 392.158 153.6 153.975 392.533-392.158v-78.882zM883.814-31.3h51.849l55.808 55.774v51.849l-360.004 359.595-107.418-107.383zM507.085 345.6l-63.351 63.351 107.281 107.315 63.386-63.351zM484.693 408.951l22.494-22.494 66.423 66.423-22.528 22.494zM873.813-29.867l116.053 116.053-20.48 20.48-116.053-116.053zM921.6 857.6h-34.133v-34.133h34.133zM853.333 652.8c-75.096 0.764-135.77 61.437-136.533 136.461l-0.001 0.073h34.133c2.484-55.527 46.873-99.916 102.17-102.392l0.23-0.008zM680.175 482.133l-22.835 23.552 117.794 121.412h71.373c40.336 0.165 76.717 16.963 102.665 43.886l0.042 0.044c26.38 27.356 42.633 64.635 42.633 105.709 0 0.037 0 0.073 0 0.11v-0.006 16.691h-9.455l-87.552-90.146-119.74 123.494 87.415 90.112v9.694h-16.009c-40.336-0.165-76.717-16.963-102.665-43.886l-0.042-0.044c-26.36-27.352-42.598-64.617-42.598-105.674 0-0.049 0-0.098 0-0.147v0.008-73.557l-166.229-171.349-22.972 23.586 156.774 161.587v59.665c0 0.079 0 0.173 0 0.267 0 50.188 19.856 95.738 52.142 129.223l-0.054-0.057c31.788 32.99 76.302 53.528 125.614 53.692h48.466v-56.798l-74.172-76.322 74.069-76.322 74.035 76.322h55.125v-49.971c0-0.075 0-0.164 0-0.253 0-50.192-19.856-95.747-52.142-129.237l0.054 0.057c-31.734-32.934-76.151-53.459-125.362-53.692h-58.070zM136.533 72.533h-34.133v-34.133h34.133zM307.2 106.667h-34.133c-2.484 55.527-46.873 99.916-102.17 102.392l-0.23 0.008v34.133c75.096-0.764 135.77-61.437 136.533-136.461l0.001-0.073zM183.091-64h-49.971v55.125l76.322 74.069-76.322 74.035-76.322-74.035h-56.798v48.299c0.193 49.305 20.726 93.777 53.638 125.491l0.054 0.052c33.428 32.231 78.979 52.088 129.167 52.088 0.082 0 0.164 0 0.245 0h59.652l161.587 156.877 23.552-22.835-171.315-166.195h-73.489c-0.031 0-0.068 0-0.104 0-41.074 0-78.353-16.252-105.755-42.677l0.046 0.044c-27.024-26.012-43.853-62.448-43.998-102.817v-16.172h9.728l90.112 87.552 123.426-119.706-90.112-87.45v-9.455h16.623c0.041 0 0.091 0 0.14 0 41.057 0 78.321 16.239 105.721 42.643l-0.047-0.045c26.981 25.953 43.808 62.292 44.032 102.563v71.449l121.412 117.76 23.552-22.835-111.616-108.305v-58.027c-0.193-49.305-20.726-93.777-53.638-125.491l-0.054-0.052c-33.412-32.15-78.906-51.951-129.025-51.951-0.156 0-0.311 0-0.466 0.001h0.024z" />
<glyph unicode="&#xe910;" glyph-name="basketball" horiz-adv-x="794" d="M753.894 420.224h-228.173c28.621 14.395 53.156 32.169 74.414 53.243l-0.021-0.020c52.028 51.373 84.254 122.696 84.254 201.545 0 71.163-26.249 136.196-69.593 185.943l0.29-0.34c-53.323 61.107-131.341 99.501-218.327 99.501-87.58 0-166.070-38.92-219.118-100.407l-0.315-0.373c-42.345-49.232-68.128-113.768-68.128-184.325 0-35.554 6.547-69.579 18.5-100.935l-0.651 1.945c2.606-4.986 7.741-8.331 13.657-8.331 8.483 0 15.36 6.877 15.36 15.36 0 1.229-0.144 2.425-0.417 3.571l0.021-0.104c-8.297 21.597-13.797 46.583-15.328 72.635l-0.032 0.683h241.331v-49.254c-75.458-3.98-142.648-36.412-191.633-86.672l-0.059-0.061c-2.867 3.866-5.658 7.68-8.294 11.776-2.794 4.147-7.473 6.839-12.78 6.839-3.1 0-5.985-0.918-8.399-2.498l0.059 0.036c-4.173-2.722-6.893-7.368-6.893-12.649 0-3.087 0.93-5.958 2.524-8.347l-0.034 0.055c28.1-42.088 65.827-75.673 110.153-98.113l1.642-0.754h-228.096c-0.038 0-0.083 0-0.129 0-21.763 0-39.421-17.577-39.551-39.309v-23.052c0.131-21.745 17.788-39.322 39.551-39.322 0.045 0 0.090 0 0.136 0h28.025c47.536-106.559 85.472-230.665 107.782-360.118l1.35-9.469c1.757-6.691 7.751-11.547 14.879-11.547 8.483 0 15.36 6.877 15.36 15.36 0 0.144-0.002 0.288-0.006 0.432v-0.021q-2.56 18.458-5.939 36.864c61.85-34.483 60.877-37.146 68.557-37.146 6.886 0-1.766-2.739 127.078 70.861 127.334-73.114 119.296-69.12 122.88-70.246 9.216-2.56 7.552-0.435 70.221 35.072-0.845-9.958-2.33-27.597-3.43-35.43-0.003-0.105-0.004-0.229-0.004-0.354 0-8.483 6.877-15.36 15.36-15.36 7.126 0 13.119 4.853 14.854 11.434l0.024 0.107c2.765 19.61 4.915 62.874 9.114 87.501 15.821 73.913 36.101 138.17 61.644 199.69l-2.764-7.511c0.683 1.658 1.079 3.584 1.079 5.601 0 6.367-3.947 11.813-9.527 14.024l-0.102 0.036c-1.661 0.67-3.586 1.058-5.603 1.058-6.381 0-11.854-3.891-14.174-9.431l-0.038-0.101q-6.272-15.667-12.058-31.232l-90.061 51.866 100.915 58.112h35.84c-3.072-6.298-6.605-13.773-10.522-22.323-0.846-1.825-1.339-3.961-1.339-6.212 0-6.135 3.664-11.415 8.923-13.769l0.096-0.038c1.846-0.847 4.004-1.341 6.278-1.341 6.126 0 11.415 3.587 13.881 8.775l0.040 0.093c7.091 15.488 12.954 27.366 16.742 34.842h28.749c0.038 0 0.083 0 0.129 0 21.763 0 39.421 17.577 39.551 39.309v23.052c-0.16 21.737-17.817 39.296-39.577 39.296-0.045 0-0.091 0-0.136 0h0.007zM603.75 523.878c-49.042 50.331-116.232 82.771-190.977 86.728l-0.716 0.030v49.254h241.331c-3.205-51.544-21.35-98.303-50.109-136.643l0.471 0.656zM412.058 929.28c67.992-3.99 128.333-33.806 171.928-79.685l0.104-0.11c-43.708-45.98-104.042-75.799-171.326-79.787l-0.706-0.033zM412.058 739.354c75.461 3.987 142.651 36.427 191.633 86.696l0.060 0.062c28.289-37.684 46.433-84.444 49.602-135.262l0.036-0.725h-241.331zM412.058 580.301c67.987-4.012 128.322-33.822 171.929-79.686l0.103-0.109c-43.705-45.987-104.040-75.807-171.328-79.788l-0.704-0.033zM381.542 929.28v-159.59c-67.987 4.012-128.322 33.822-171.929 79.686l-0.103 0.109c43.71 45.973 104.045 75.783 171.328 79.762l0.704 0.033zM140.211 690.099c3.205 51.544 21.35 98.303 50.109 136.643l-0.471-0.656c49.040-50.333 116.232-82.774 190.977-86.728l0.715-0.030v-49.254zM209.51 500.48c43.71 45.973 104.045 75.783 171.328 79.762l0.704 0.033v-159.616c-67.992 4.035-128.324 33.861-171.929 79.737l-0.103 0.11zM100.762 318.618h37.555l100.915-58.112-95.59-55.040c-16.333 47.974-32.077 87.424-42.88 113.152zM366.259 187.392l-96.538-55.603-96.614 55.603 96.614 55.629zM300.058 260.506l96.717 55.706 96.717-55.706-96.691-55.706zM158.31 160.922l80.973-46.643-58.086-33.459c-7.142 27.827-14.925 54.861-22.886 80.102zM269.67-14.387c-79.206 45.568-74.624 43.085-76.314 43.827q-2.227 10.419-4.634 20.71l80.998 46.643 96.512-55.578zM396.774 58.573l-96.742 55.706 96.742 55.706 96.717-55.706zM593.434 25.6l-69.53-40.038-96.512 55.578 96.512 55.578 74.445-42.88c-2.016-7.858-3.746-17.459-4.827-27.255l-0.088-0.981zM605.594 84.659l-51.2 29.542 71.68 41.242q-11.674-35.712-20.454-70.707zM620.442 187.392l-96.589-55.629-96.512 55.629 96.589 55.603zM523.904 278.016l-70.502 40.602h141.005zM763.059 357.939v0c-0.086-5.011-4.147-9.046-9.161-9.088h-455.684c-8.356 0-15.13-6.774-15.13-15.13s6.774-15.13 15.13-15.13h41.984l-70.477-40.576-70.502 40.602h37.99c8.356 0 15.13 6.774 15.13 15.13s-6.774 15.13-15.13 15.13h-197.53c-5.018 0.042-9.079 4.077-9.165 9.080v23.048c0.086 5.011 4.147 9.046 9.161 9.088h714.244c5.018-0.042 9.079-4.077 9.165-9.080v-23.048z" />
<glyph unicode="&#xe911;" glyph-name="cart" d="M1020.992 564.608l-103.68-514.944c-13.912-64.353-69.642-112.115-136.794-113.661l-0.166-0.003h-536.704c-67.379 1.463-123.187 49.257-136.917 112.721l-0.171 0.943-103.616 514.944c-1.909 7.791-3.003 16.734-3.003 25.934 0 62.669 50.803 113.472 113.472 113.472 0.628 0 1.256-0.005 1.882-0.015l-0.095 0.001h141.44c-0.204 3.821-0.32 8.295-0.32 12.796 0 141.385 114.615 256 256 256s256-114.615 256-256c0-4.501-0.116-8.975-0.346-13.419l0.026 0.623h140.8c0.657 0.014 1.431 0.021 2.207 0.021 62.598 0 113.344-50.746 113.344-113.344 0-9.249-1.108-18.239-3.198-26.845l0.159 0.775zM229.76 75.392c2.309-5.999 7.584-10.38 13.979-11.379l0.101-0.013h536.448c6.45 1.042 11.676 5.417 13.911 11.27l0.041 0.122 23.68 116.608h-611.52l23.424-116.608zM512 832c-70.692 0-128-57.308-128-128v0h256c0 70.692-57.308 128-128 128v0zM129.152 576l51.52-256h663.168l52.16 256.384-766.72-0.384z" />
<glyph unicode="&#xe912;" glyph-name="furniture" horiz-adv-x="717" d="M620.979 195.866h-524.57c-12.151-0.029-21.99-9.886-21.99-22.042 0 0 0 0 0 0v0-69.12c0 0 0 0 0 0 0-12.155 9.839-22.012 21.988-22.042h361.603c8.285 0 15.002 6.716 15.002 15.002s-6.716 15.002-15.002 15.002v0h-353.664v53.222h508.698v-53.222h-84.89c-8.285 0-15.002-6.716-15.002-15.002s6.716-15.002 15.002-15.002v0h92.723c12.151 0.029 21.99 9.886 21.99 22.042 0 0 0 0 0 0v0 69.12c0 0 0 0 0 0.001 0 12.119-9.781 21.954-21.88 22.041h-0.008zM701.824 960h-686.848c-8.285 0-15.002-6.716-15.002-15.002s6.716-15.002 15.002-15.002v0h0.691v-870.784c0.014-18.715 15.16-33.887 33.863-33.946h9.299l-9.728-42.317v-0.589c-0.431-2.178-0.677-4.683-0.677-7.245 0-21.585 17.494-39.083 39.076-39.091h0.001c19.764 0.067 36.633 12.389 43.411 29.762l0.109 0.318 25.6 59.187h406.502l25.6-59.187c6.887-17.691 23.756-30.013 43.512-30.080h0.008c21.583 0.008 39.077 17.507 39.077 39.091 0 2.562-0.246 5.067-0.717 7.491l0.040-0.246v0.589l-9.728 42.317h7.168c18.729 0.044 33.894 15.236 33.894 33.971 0 0 0 0 0 0v0 870.758c8.285 0 15.002 6.716 15.002 15.002s-6.716 15.002-15.002 15.002v0zM99.123 876.416h23.578v-151.936h-23.578zM152.627 797.261l29.722-72.781h-29.722zM583.424 786.125c6.059-6.521 9.778-15.289 9.778-24.926 0-20.246-16.413-36.659-36.659-36.659s-36.659 16.413-36.659 36.659c0 9.478 3.597 18.116 9.501 24.624l-0.027-0.031c10.549 11.414 17.064 26.693 17.203 43.492v19.817c0 0.141 0.115 0.256 0.256 0.256v0h19.43c0.141 0 0.256-0.115 0.256-0.256v0-19.328c0-0.087-0.001-0.19-0.001-0.293 0-16.747 6.433-31.992 16.962-43.399l-0.040 0.044zM671.795 694.4v-205.594h-86.528v93.773c0 0 0 0 0 0 0 10.614-8.59 19.222-19.197 19.251h-183.734c-10.61-0.029-19.2-8.637-19.2-19.251 0 0 0 0 0 0v0-93.747h-26.88c-8.285 0-15.002-6.716-15.002-15.002s6.716-15.002 15.002-15.002h335.616v-22.81h-87.91c-6.543-0.001-12.32-3.279-15.779-8.282l-0.042-0.064-27.085 11.11c-2.147 0.902-4.642 1.425-7.259 1.425-7.989 0-14.838-4.879-17.73-11.82l-0.047-0.127-65.792-161.28c-0.894-2.137-1.414-4.621-1.414-7.226 0-2.301 0.405-4.508 1.149-6.552l-0.042 0.133h-182.784c0.179 0.87 0.358 1.766 0.486 2.56l11.904 87.040c0.179 1.238 0.282 2.668 0.282 4.122 0 16.722-13.541 30.281-30.256 30.31h-33.283v12.006h6.451c36.705 0.073 66.432 29.845 66.432 66.56 0 0 0 0 0 0v0 9.984c0 14.138-11.462 25.6-25.6 25.6v0h-9.907c-15.538-0.003-29.82-5.375-41.093-14.362l0.133 0.103c-9.24 26.391-33.932 44.979-62.964 44.979-0.013 0-0.026 0-0.039 0h-21.758c-14.138 0-25.6-11.462-25.6-25.6v0-7.91h-56.832v204.8zM534.733 253.235l30.029 73.626v-73.626zM481.92 265.498l57.702 141.542 21.811-8.934-57.677-141.44zM618.266 253.235h-23.45v152.781h23.578zM648.218 406.016h23.578v-152.781h-23.578zM393.011 515.302h162.278v-26.496h-162.278zM555.315 545.28h-162.304v26.522h162.278zM45.619 458.778h58.88c7.46-29.149 33.46-50.364 64.427-50.432h17.314v-31.104h-31.488c-16.718-0.029-30.259-13.588-30.259-30.31 0-1.454 0.102-2.883 0.3-4.282l-0.019 0.161 11.904-87.040c0-0.896 0.307-1.792 0.486-2.56h-91.571zM186.189 438.298h-17.306c-20.157 0.044-36.48 16.394-36.48 36.557 0 0 0 0 0 0v0 17.331h17.306c20.128-0.058 36.425-16.374 36.454-36.503v-0.003zM166.374 259.891l-11.904 87.040c-0.003 0.015-0.004 0.033-0.004 0.051 0 0.17 0.138 0.307 0.307 0.307 0.002 0 0.003 0 0.005 0v0h94.72c0.034 0.017 0.073 0.027 0.115 0.027s0.082-0.010 0.117-0.028l-0.001 0.001c0.022-0.037 0.034-0.081 0.034-0.128s-0.013-0.091-0.035-0.129l0.001 0.001-11.904-87.040c-0.544-3.807-3.769-6.705-7.677-6.733h-56.093c-0.026 0-0.057 0-0.087 0-3.899 0-7.119 2.905-7.614 6.669l-0.004 0.039zM217.139 419.302v5.453c0 0 0 0 0 0 0 20.163 16.323 36.513 36.476 36.557h5.457v-5.453c0 0 0 0 0 0 0-20.163-16.323-36.513-36.476-36.557h-5.457zM213.632 727.040l-57.677 141.389 21.811 8.934 57.677-141.44zM69.171 724.48h-23.578v151.936h23.578zM103.296-22.374l-0.307-0.742c-2.422-6.39-8.482-10.855-15.587-10.88h-0.003c-5.029 0.006-9.103 4.084-9.103 9.114 0 0.515 0.043 1.021 0.125 1.512l-0.007-0.053 11.187 48.64h34.176zM641.152-23.424c0.075-0.439 0.118-0.944 0.118-1.459 0-5.030-4.074-9.108-9.103-9.114h-0.001c-7.109 0.025-13.168 4.49-15.552 10.765l-0.038 0.115-0.307 0.742-20.48 47.642h34.176zM671.872 59.213c0-2.191-1.777-3.968-3.968-3.968v0h-618.368c-2.191 0-3.968 1.777-3.968 3.968v0 164.019h626.202v-164.019zM671.872 724.403h-59.699c6.873 10.327 10.967 23.017 10.967 36.663 0 17.522-6.75 33.467-17.79 45.377l0.039-0.043c-5.54 6.032-8.935 14.11-8.935 22.982 0 0.092 0 0.185 0.001 0.277v-0.014 19.456c0 0 0 0 0 0 0 16.694-13.518 30.23-30.205 30.259h-19.433c-16.69-0.029-30.208-13.565-30.208-30.259v0-19.789c-0.149-9.061-3.716-17.261-9.464-23.392l0.018 0.019c-10.703-11.768-17.257-27.476-17.257-44.715 0-13.719 4.15-26.468 11.264-37.060l-0.151 0.239h-233.216c0.526 1.667 0.83 3.584 0.83 5.572 0 2.606-0.521 5.090-1.465 7.354l0.047-0.126-65.766 161.357c-2.949 7.065-9.801 11.939-17.791 11.939-2.612 0-5.102-0.521-7.373-1.464l0.127 0.047-27.162-11.11c-3.501 5.067-9.278 8.345-15.821 8.346h-87.834v23.68h626.202z" />
<glyph unicode="&#xe913;" glyph-name="grill" d="M980.48 573.978h-73.293c-8.939-0.015-16.179-7.264-16.179-16.205 0-0.009 0-0.018 0-0.027v0.001-10.24h-17.101c0 3.149 0.205 6.323 0.256 9.472 0 0 0 0.154 0 0.23s0 0.845 0 1.254c0 73.139-182.17 111.411-362.112 111.411s-362.086-38.323-362.086-111.411c0-0.435 0-0.845 0-1.28s0-0.154 0-0.205q0-4.736 0.205-9.472h-17.050v10.24c0 0.008 0 0.017 0 0.026 0 8.941-7.241 16.19-16.178 16.205h-73.422c-1.545 0.22-3.329 0.346-5.143 0.346-21.208 0-38.4-17.192-38.4-38.4 0-0.464 0.008-0.926 0.025-1.385l-0.002 0.067v-6.733c-0.014-0.385-0.022-0.838-0.022-1.293 0-21.208 17.192-38.4 38.4-38.4 1.813 0 3.597 0.126 5.344 0.369l-0.202-0.023h73.293c8.939 0.015 16.179 7.264 16.179 16.205 0 0.009 0 0.018 0 0.027v-0.001 10.24h19.763c16.707-129.546 99.515-236.484 212.983-287.003l2.313-0.92-91.136-193.92c-1.153-2.171-1.83-4.747-1.83-7.481 0-8.95 7.255-16.205 16.205-16.205 6.658 0 12.379 4.016 14.871 9.757l0.040 0.105 92.16 196.147c29.934-10.209 64.482-16.671 100.358-17.903l0.609-0.017v-245.402c0-8.943 7.249-16.192 16.192-16.192s16.192 7.249 16.192 16.192v245.76c36.357 2.043 70.402 9.146 102.357 20.63l-2.517-0.79 93.21-198.374c2.533-5.846 8.254-9.862 14.912-9.862 8.95 0 16.205 7.255 16.205 16.205 0 2.734-0.677 5.31-1.873 7.57l0.043-0.088-92.39 196.634c49.48 22.867 91.205 54.683 124.755 93.727l0.404 0.481c2.55 2.851 4.109 6.635 4.109 10.784 0 8.95-7.255 16.205-16.205 16.205-5.009 0-9.487-2.272-12.459-5.842l-0.021-0.026c-56.57-65.921-138.061-109.063-229.697-114.719l-0.934-0.046v72.474c0 8.943-7.249 16.192-16.192 16.192s-16.192-7.249-16.192-16.192v-72.806c-157.622 7.065-286.118 123.273-312.067 274.516l-0.279 1.964c5.070-3.276 11.107-6.685 17.34-9.754l1.092-0.486c0.585-0.348 1.276-0.692 1.992-0.985l0.107-0.039c67.917-31.923 186.88-48.384 304.64-48.384 130.944 0 263.066 20.275 325.299 59.494-7.495-44.984-23.072-85.205-45.277-120.871l0.81 1.396c-1.521-2.423-2.423-5.369-2.423-8.525 0-8.952 7.257-16.208 16.208-16.208 5.796 0 10.881 3.042 13.746 7.616l0.040 0.068c25.909 41.51 43.925 90.589 50.654 143.198l0.188 1.801h19.712v-10.24c0-0.008 0-0.017 0-0.026 0-8.941 7.241-16.19 16.178-16.205h73.294c1.545-0.22 3.329-0.346 5.142-0.346 21.208 0 38.4 17.192 38.4 38.4 0 0.455-0.008 0.908-0.024 1.358l0.002-0.065v6.733c0.017 0.432 0.027 0.938 0.027 1.447 0 21.208-17.192 38.4-38.4 38.4-1.815 0-3.601-0.126-5.349-0.37l0.202 0.023zM100.557 520.986h-57.037c-11.059 0-11.059 2.893-11.059 6.912v6.733c0 4.019 0 6.912 11.059 6.912h57.114zM761.037 607.565c16.947-4.926 31.267-10.396 45.025-16.864l-1.864 0.787-18.714-18.176h-59.494zM724.224 616.986l-44.928-43.674h-59.52l54.4 52.864c17.587-2.611 34.406-5.683 50.304-9.165zM632.806 631.373l-59.725-58.061h-59.52l64.154 62.362c18.918-0.973 37.402-2.432 55.27-4.275zM512 637.414q10.419 0 20.736-0.179l-65.766-64h-59.622l65.306 63.462q19.456 0.717 39.347 0.717zM356.429 627.174c21.325 3.021 43.75 5.402 66.995 7.091l-62.669-60.902h-59.622zM271.693 610.15c8.858 2.56 18.125 4.71 27.75 6.835l-44.877-43.52h-63.539c22.726 17.278 49.861 30.047 79.377 36.417l1.34 0.242zM210.253 530.253c-6.158 3.321-11.453 6.851-16.388 10.811l0.209-0.162h27.136zM271.693 506.829c-10.88 2.995-20.685 6.118-29.491 9.318l25.6 24.781h59.622l-39.398-38.4q-8.32 2.074-16.282 4.25zM378.906 486.912c-18.304 2.125-35.84 4.71-52.634 7.68l47.616 46.285h59.776l-51.968-50.509c-1.079-1.016-2.011-2.169-2.775-3.435l-0.041-0.073zM477.133 480.026c-19.302 0.538-38.272 1.51-56.704 2.918l59.674 58.010h59.699zM523.213 479.59l63.104 61.44h59.699l-60.954-59.264c-20.096-1.254-40.781-2.048-61.798-2.227zM712.090 501.914c-1.502-1.459-2.72-3.202-3.569-5.144l-0.041-0.104c-22.605-4.403-46.95-8.013-72.576-10.752l56.627 55.040h59.699zM768.666 511.693l30.106 29.261h31.232c-17.492-12.727-37.91-22.772-59.934-28.986l-1.353-0.326zM832.154 573.389l0.435 0.435 0.461-0.435zM991.565 527.949c0-3.994 0-6.912-11.059-6.912h-57.139v20.48h57.114c11.059 0 11.059-2.893 11.059-6.912zM319.334 718.464c-3.096-2.961-5.020-7.125-5.020-11.738 0-8.965 7.268-16.233 16.233-16.233 4.352 0 8.304 1.713 11.219 4.501l-0.006-0.006c15.664 15.261 25.381 36.561 25.381 60.13 0 23.011-9.262 43.86-24.262 59.020l0.007-0.007c-9.83 9.258-15.951 22.36-15.951 36.892 0 4.326 0.542 8.525 1.563 12.534l-0.076-0.35c2.721 7.911 7.112 14.645 12.78 20.052l0.020 0.019c3.489 2.995 5.685 7.411 5.685 12.339 0 8.965-7.268 16.233-16.233 16.233-4.037 0-7.729-1.473-10.569-3.912l0.022 0.018c-14.251-12.879-23.758-30.771-25.728-50.875l-0.026-0.325c-0.055-1.159-0.087-2.517-0.087-3.883 0-23.204 9.112-44.28 23.953-59.844l-0.033 0.035c10.078-9.501 16.353-22.94 16.353-37.845 0-14.354-5.819-27.348-15.227-36.753v0zM442.675 766.669c-3.1-2.969-5.026-7.141-5.026-11.763 0-8.99 7.288-16.278 16.278-16.278 4.368 0 8.334 1.72 11.257 4.52l-0.006-0.006c15.664 15.261 25.381 36.561 25.381 60.13 0 23.011-9.262 43.86-24.262 59.020l0.007-0.007c-9.827 9.258-15.946 22.358-15.946 36.887 0 4.318 0.541 8.511 1.558 12.513l-0.075-0.35c2.723 7.911 7.114 14.644 12.781 20.052l0.019 0.018c3.297 2.982 5.359 7.276 5.359 12.051 0 8.964-7.267 16.23-16.23 16.23-3.877 0-7.436-1.359-10.227-3.627l0.030 0.024c-14.249-12.88-23.756-30.772-25.728-50.875l-0.026-0.325c-0.056-1.161-0.087-2.521-0.087-3.889 0-23.24 9.143-44.345 24.029-59.913l-0.031 0.033c9.977-9.488 16.182-22.861 16.182-37.684 0-14.358-5.822-27.355-15.235-36.761v0zM566.042 766.669c-3.096-2.961-5.020-7.125-5.020-11.738 0-8.965 7.268-16.233 16.233-16.233 4.352 0 8.304 1.713 11.219 4.501l-0.006-0.006c15.664 15.261 25.381 36.561 25.381 60.13 0 23.011-9.262 43.86-24.262 59.020l0.007-0.007c-9.827 9.258-15.946 22.358-15.946 36.887 0 4.318 0.541 8.511 1.558 12.513l-0.075-0.35c2.718 7.921 7.11 14.664 12.781 20.078l0.019 0.018c3.489 2.995 5.685 7.411 5.685 12.339 0 8.965-7.268 16.233-16.233 16.233-4.037 0-7.729-1.473-10.569-3.912l0.022 0.018c-14.249-12.88-23.756-30.772-25.728-50.875l-0.026-0.325c-0.055-1.153-0.086-2.505-0.086-3.864 0-23.253 9.153-44.367 24.053-59.938l-0.030 0.032c10.024-9.494 16.261-22.898 16.261-37.758 0-14.359-5.823-27.357-15.237-36.763v0zM689.331 718.438c-3.096-2.961-5.020-7.125-5.020-11.738 0-8.965 7.268-16.233 16.233-16.233 4.352 0 8.304 1.713 11.219 4.501l-0.006-0.006c15.664 15.261 25.381 36.561 25.381 60.13 0 23.011-9.262 43.86-24.262 59.020l0.007-0.007c-9.827 9.258-15.946 22.358-15.946 36.887 0 4.318 0.541 8.511 1.558 12.513l-0.075-0.35c2.722 7.911 7.113 14.645 12.78 20.052l0.020 0.019c3.297 2.982 5.359 7.276 5.359 12.051 0 8.964-7.267 16.23-16.23 16.23-3.877 0-7.436-1.359-10.227-3.627l0.030 0.024c-14.249-12.88-23.756-30.772-25.728-50.875l-0.026-0.325c-0.055-1.156-0.087-2.511-0.087-3.873 0-23.249 9.153-44.361 24.053-59.928l-0.030 0.032c10.008-9.492 16.235-22.886 16.235-37.734 0-14.358-5.823-27.357-15.236-36.762v0z" />
<glyph unicode="&#xe914;" glyph-name="bike" horiz-adv-x="1126" d="M1098.906 384.998c0.023 0 0.050 0 0.078 0 15.047 0 27.261 12.133 27.391 27.149v30.527c-0.101 15.051-12.326 27.213-27.391 27.213-0.036 0-0.072 0-0.109 0h-286.714v40.448h48.358c41.454 0 75.059 33.605 75.059 75.059s-33.605 75.059-75.059 75.059h-189.824c-41.454 0-75.059-33.605-75.059-75.059s33.605-75.059 75.059-75.059h37.811v-67.123c-41.674 30.845-88.937 59.029-138.924 82.353l-5.076 2.127c-21.862 10.112-44.698 19.661-67.942 28.39-1.748 0.687-3.773 1.085-5.891 1.085-6.972 0-12.937-4.315-15.369-10.42l-0.039-0.112c-0.675-1.72-1.066-3.712-1.066-5.796 0-6.967 4.376-12.912 10.529-15.236l0.112-0.037c22.477-8.448 44.57-17.69 65.69-27.443 62.552-28.762 116.463-62.511 165.411-102.149l-1.443 1.131c2.839-2.325 6.507-3.735 10.504-3.735 2.552 0 4.971 0.575 7.132 1.602l-0.101-0.043c5.624 2.648 9.451 8.26 9.472 14.768v100.611h37.811v-168.269c0-4.144 1.554-7.926 4.11-10.794l-0.014 0.016c12.226-13.71 24.17-28.636 35.303-44.182l1.1-1.616c-14.165-7.727-26.392-16.485-37.426-26.53l0.152 0.136c-64.304 85.34-148.4 152.454-245.65 195.139l-3.95 1.546c-54.356 25.774-118.105 48.17-184.439 63.887l-6.716 1.342v46.976c20.634-4.582 44.877-10.624 71.68-18.509 1.403-0.43 3.015-0.678 4.686-0.678 7.383 0 13.636 4.838 15.762 11.517l0.032 0.117c0.432 1.396 0.681 3.001 0.681 4.664 0 7.388-4.913 13.629-11.651 15.633l-0.115 0.029c-30.874 9.139-58.598 15.872-81.485 20.762-2.453 12.847-13.598 22.426-26.981 22.426-0.019 0-0.037 0-0.056 0h-9.443v85.197c20.881 2.889 36.806 20.556 36.941 41.97v22.875h45.056c7.254-18.467 24.924-31.303 45.593-31.309h91.009c26.679 0 48.307 21.628 48.307 48.307s-21.628 48.307-48.307 48.307v0h-91.008c-21.167-0.007-39.187-13.47-45.973-32.299l-0.107-0.341h-221.082c-0.324-0.008-0.706-0.013-1.089-0.013-25.591 0-46.336 20.745-46.336 46.336s20.745 46.336 46.336 46.336c0.383 0 0.765-0.005 1.145-0.014l-0.056 0.001h219.981c5.882-20.83 24.719-35.84 47.062-35.84 0.042 0 0.083 0 0.125 0h91.002c0.054 0 0.117 0 0.18 0 26.755 0 48.465 21.602 48.639 48.317v0.016c-0.232 26.687-21.919 48.231-48.638 48.231-0.064 0-0.127 0-0.191 0h-90.998c-0.005 0-0.010 0-0.016 0-19.48 0-36.301-11.385-44.171-27.865l-0.127-0.295h-222.72c-0.316 0.005-0.688 0.007-1.062 0.007-43.603 0-78.95-35.347-78.95-78.95 0-42.437 33.482-77.054 75.47-78.875l0.164-0.006v-23.040c0.191-21.336 16.030-38.916 36.586-41.83l0.226-0.026v-85.274h-9.421c-0.031 0-0.067 0-0.103 0-15.065 0-27.29-12.162-27.391-27.203v-91.146c0.101-15.051 12.326-27.213 27.391-27.213 0.036 0 0.072 0 0.109 0h9.44v-50.688c-113.743-23.97-197.897-123.491-197.897-242.667 0-92.494 50.69-173.149 125.805-215.7l1.231-0.641h-110.541c-0.335 0.024-0.725 0.038-1.119 0.038-9.020 0-16.333-7.312-16.333-16.333s7.312-16.333 16.333-16.333c0.394 0 0.784 0.014 1.171 0.041l-0.052-0.003h1093.402c0.193-0.008 0.419-0.013 0.646-0.013 9.020 0 16.333 7.312 16.333 16.333s-7.312 16.333-16.333 16.333c-0.227 0-0.454-0.005-0.679-0.014l0.032 0.001h-94.31c49.603 33.55 81.78 89.6 81.78 153.165 0 43.58-15.124 83.628-40.411 115.18l0.282-0.364 33.843 148.48h7.68zM432.461 806.63h91.008c8.653 0 15.667-7.014 15.667-15.667s-7.014-15.667-15.667-15.667h-91.008c-8.653 0-15.667 7.014-15.667 15.667s7.014 15.667 15.667 15.667v0zM432.461 927.36h91.008c8.653 0 15.667-7.014 15.667-15.667s-7.014-15.667-15.667-15.667h-91.008c-8.653 0-15.667 7.014-15.667 15.667s7.014 15.667 15.667 15.667v0zM670.541 542.976c-0.31-0.008-0.676-0.013-1.042-0.013-23.427 0-42.419 18.992-42.419 42.419s18.992 42.419 42.419 42.419c0.366 0 0.732-0.005 1.096-0.014l-0.054 0.001h189.978c0.31 0.008 0.676 0.013 1.042 0.013 23.427 0 42.419-18.992 42.419-42.419s-18.992-42.419-42.419-42.419c-0.366 0-0.732 0.005-1.096 0.014l0.054-0.001zM193.946 751.155v22.81h114.765v-22.835c-0.1-5.396-4.477-9.737-9.878-9.779h-95.006c-5.405 0.042-9.782 4.383-9.881 9.77v0.009zM271.77 708.736v-84.838h-40.883v84.813zM193.946 510.976v80.384h114.765v-80.384zM325.427 138.829c6.251 9.685 10.661 21.148 12.439 33.462l0.054 0.458h51.763c-2.413-26.831-12.285-50.973-27.502-70.8l0.238 0.323zM339.584 78.643c-19.647-16.137-44.149-27.058-71.012-30.321l-0.668-0.066v51.584c13.383 2.591 25.21 7.9 35.367 15.352l-0.244-0.171zM336.205 205.389c-2.961 11.601-7.921 21.752-14.547 30.584l0.159-0.222 36.557 36.224c15.362-18.25 26.081-40.892 30.055-65.783l0.102-0.777zM304.768 265.037v46.387c11.388-4.769 21.206-10.435 30.189-17.157l-0.365 0.261zM271.77 478.362v-209.562c-6.151 1.541-13.212 2.425-20.48 2.425s-14.329-0.884-21.082-2.55l0.602 0.126v209.536zM251.29 238.541c29.392-0.39 53.069-24.308 53.069-53.756 0-29.691-24.069-53.76-53.76-53.76-29.689 0-53.757 24.067-53.76 53.755v0c0.275 29.736 24.444 53.735 54.219 53.735 0.091 0 0.181 0 0.272-0.001h-0.014zM180.787 235.75c-6.478-8.615-11.448-18.775-14.283-29.793l-0.13-0.595h-52.326c4.069 25.669 14.789 48.312 30.326 66.766l-0.169-0.206zM167.987 294.63c8.618 6.46 18.436 12.126 28.907 16.552l0.917 0.344v-46.413zM164.659 172.851c1.825-12.77 6.227-24.233 12.671-34.259l-0.204 0.339-36.864-36.685c-14.98 19.503-24.853 43.646-27.226 69.952l-0.038 0.525zM199.654 114.893c9.914-7.278 21.741-12.587 34.571-15.091l0.553-0.090v-51.482c-27.531 3.329-52.033 14.25-71.923 30.581l0.243-0.194zM375.373-31.36c62.19 35.229 107.117 94.788 122.104 165.412l0.289 1.628c0.201 0.966 0.316 2.076 0.316 3.213 0 9.11-7.385 16.495-16.495 16.495-7.973 0-14.625-5.657-16.161-13.176l-0.018-0.106c-19.711-101.85-108.165-177.711-214.338-177.711-120.46 0-218.112 97.652-218.112 218.112 0 101.571 69.428 186.926 163.416 211.197l1.514 0.332v-47.821c-67.75-23.551-115.507-86.854-115.507-161.312 0-94.106 76.288-170.394 170.394-170.394 94.009 0 170.237 76.131 170.393 170.103v0.015c-0.351 75.255-49.405 138.961-117.246 161.245l-1.205 0.343v47.77c85.015-21.705 149.203-91.317 162.634-177.72l0.157-1.224c1.158-8.075 8.029-14.213 16.333-14.213 9.108 0 16.491 7.383 16.491 16.491 0 0.804-0.057 1.594-0.169 2.367l0.010-0.088c-9.11 61.191-39.425 114.036-83.095 151.878l-0.31 0.263c-30.817 26.758-68.635 46.276-110.328 55.473l-1.672 0.31v50.816h9.446c0.007 0 0.015 0 0.023 0 8.749 0 16.546 4.079 21.591 10.439l0.044 0.057c69.954-16.456 130.952-37.94 188.785-65.055l-5.848 2.463c98.105-42.646 179.365-108.289 239.505-190.376l1.135-1.624c-23.852-30.757-38.237-69.899-38.237-112.399 0-63.555 32.167-119.598 81.108-152.735l0.649-0.414zM1064.32 121.984c0.006-0.487 0.009-1.062 0.009-1.638 0-85.609-69.399-155.008-155.008-155.008s-155.008 69.399-155.008 155.008c0 85.606 69.395 155.003 154.999 155.008v0c0.206 0.001 0.45 0.002 0.695 0.002 84.896 0 153.785-68.531 154.364-153.29v-0.055zM1029.862 264.653c-32.46 26.982-74.573 43.357-120.511 43.357-20.981 0-41.164-3.416-60.024-9.722l1.335 0.387c-12.935 18.622-25.544 34.742-38.972 50.129l0.572-0.67v36.864h133.811c0.193-0.008 0.419-0.013 0.646-0.013 9.020 0 16.333 7.312 16.333 16.333s-7.312 16.333-16.333 16.333c-0.227 0-0.454-0.005-0.679-0.014l0.032 0.001h-133.888v19.558h281.216v-19.558h-68.198c-0.193 0.008-0.419 0.013-0.646 0.013-9.020 0-16.333-7.312-16.333-16.333s7.312-16.333 16.333-16.333c0.227 0 0.454 0.005 0.679 0.014l-0.032-0.001h32.051zM911.693 214.042c-50.773-0.073-91.904-41.249-91.904-92.032 0-50.828 41.204-92.032 92.032-92.032 50.783 0 91.959 41.131 92.032 91.897v0.007c0 50.899-41.261 92.16-92.16 92.16v0zM911.693 62.643c-32.776 0.015-59.341 26.588-59.341 59.366 0 32.787 26.579 59.366 59.366 59.366s59.366-26.579 59.366-59.366v0c-0.044-32.779-26.611-59.337-59.389-59.366h-0.003z" />
<glyph unicode="&#xe915;" glyph-name="large-arrow-left" horiz-adv-x="4096" d="M614.4 960v-204.8h-102.4v-102.4h-102.4v-102.4h3686.4v-204.8h-3686.4v-102.4h102.4v-102.4h102.4v-204.8h-204.8v102.4h-102.4v102.4h-102.4v102.4h-102.4v102.4h-102.4v204.8h102.4v102.4h102.4v102.4h102.4v102.4h102.4v102.4z" />
<glyph unicode="&#xe916;" glyph-name="large-arrow-right" horiz-adv-x="4096" d="M3481.252-63.898v204.78h102.39v102.39h102.39v102.39h-3686.031v204.78h3686.031v102.39h-102.39v102.39h-102.39v204.78h204.78v-102.39h102.39v-102.39h102.39v-102.39h102.39v-102.39h102.39v-204.78h-102.39v-102.39h-102.39v-102.39h-102.39v-102.39h-102.39v-102.39z" />
<glyph unicode="&#xe917;" glyph-name="next-thin" horiz-adv-x="597" d="M170.738 960v-85.326h85.326v-85.326h85.326v-85.326h85.326v-85.326h85.326v-85.326h85.326v-170.652h-85.326v-85.326h-85.326v-85.326h-85.326v-85.326h-85.326v-85.326h-85.326v-85.326h-170.652v170.652h85.326v85.326h85.326v85.326h85.326v85.326h85.326v170.652h-85.326v85.326h-85.326v85.326h-85.326v85.326h-85.326v170.652z" />
<glyph unicode="&#xe918;" glyph-name="teddy" horiz-adv-x="870" d="M841.498 196.198c-3.431 3.962-6.969 7.564-10.718 10.936l-0.111 0.098c3.77 9.707 5.954 20.942 5.954 32.687 0 3.392-0.182 6.741-0.537 10.039l0.036-0.409c-8.064 95.667-91.776 161.843-149.504 196.48 31.329 46.113 50.020 103.014 50.020 164.281 0 39.275-7.681 76.756-21.622 111.023l0.709-1.972c42.436 21.036 71.141 63.973 71.347 113.636v0.028c-0.855 70.434-58.152 127.203-128.708 127.203-50.311 0-93.88-28.865-115.051-70.937l-0.337-0.74c-32.102 12.549-69.27 19.822-108.137 19.822-38.739 0-75.791-7.225-109.881-20.402l2.082 0.708c-21.71 42.63-65.269 71.321-115.528 71.321-42.735 0-80.625-20.743-104.15-52.711l-0.251-0.357c-1.535-2.328-2.448-5.183-2.448-8.251 0-8.356 6.774-15.13 15.13-15.13 4.841 0 9.151 2.274 11.921 5.812l0.025 0.033c18.165 24.719 47.128 40.583 79.795 40.583 37.963 0 70.923-21.425 87.446-52.842l0.259-0.541c-14.846-7.455-27.417-15.043-39.351-23.473l0.951 0.637c-8.564 19.012-27.346 32.009-49.163 32.009-29.307 0-53.136-23.451-53.748-52.611l-0.001-0.057c0.059-21.711 13.151-40.349 31.863-48.507l0.342-0.133c-8.032-10.844-15.809-23.154-22.669-36.026l-0.781-1.606c-31.68 16.316-52.994 48.755-53.094 86.181v0.014c-0.344 8.112-7.003 14.558-15.168 14.558s-14.824-6.446-15.167-14.527l-0.001-0.031c0.14-49.624 28.713-92.542 70.28-113.331l0.734-0.333c-13.264-32.332-20.964-69.859-20.964-109.184 0-61.318 18.72-118.263 50.756-165.433l-0.66 1.030c-57.856-34.765-141.158-100.864-149.197-196.301-0.318-2.882-0.499-6.225-0.499-9.61 0-11.743 2.184-22.976 6.167-33.316l-0.215 0.634c-24.377-22.125-39.621-53.933-39.621-89.302 0-6.64 0.537-13.154 1.571-19.502l-0.093 0.694 10.24-62.157c10.476-57.755 60.379-100.981 120.377-100.981 34.713 0 66.046 14.469 88.298 37.705l0.042 0.044c32.303-23.553 72.787-37.683 116.57-37.683 0.067 0 0.134 0 0.202 0h153.334c8.299 0 15.027 6.728 15.027 15.027s-6.728 15.027-15.027 15.027h-153.344c-0.020 0-0.044 0-0.067 0-37.127 0-71.45 12-99.304 32.333l0.479-0.333c12.814 29.669 21.317 64.075 23.707 100.152l0.050 0.942c1.002 5.804 1.575 12.488 1.575 19.306 0 29.793-10.938 57.032-29.017 77.919l0.127-0.15c-14.088 16.354-32.242 28.83-52.905 35.893l-0.855 0.254c6.784 38.222 22.282 71.984 44.386 100.345l-0.379-0.505c1.48 2.297 2.36 5.103 2.36 8.114 0 8.356-6.774 15.13-15.13 15.13-4.984 0-9.405-2.41-12.161-6.127l-0.029-0.041c-24.061-31.001-41.254-68.524-48.615-109.462l-0.23-1.54c-5.77 0.732-12.445 1.149-19.218 1.149-23.978 0-46.734-5.233-67.188-14.618l1.004 0.413c-1.037 4.524-1.631 9.719-1.631 15.053 0 2.38 0.118 4.732 0.349 7.051l-0.024-0.293c3.149 37.35 25.37 108.672 137.088 174.541 56.070-67.059 139.761-109.409 233.344-109.409 93.653 0 177.4 42.414 233.080 109.080l0.392 0.482c111.949-65.92 134.221-137.344 137.37-174.694 0.207-2.026 0.326-4.378 0.326-6.758 0-5.334-0.594-10.529-1.72-15.523l0.089 0.47c-19.432 8.967-42.168 14.196-66.125 14.196-6.667 0-13.239-0.405-19.694-1.192l0.775 0.077c-7.58 41.973-24.581 79.043-48.763 110.274l0.43-0.578c-2.773 3.912-7.282 6.434-12.381 6.434-8.356 0-15.13-6.774-15.13-15.13 0-3.069 0.914-5.924 2.483-8.308l-0.035 0.057c21.589-27.463 36.936-60.834 43.328-97.289l0.192-1.323c-21.685-7.281-39.986-19.803-54.037-36.093l-0.132-0.157c-17.952-20.737-28.89-47.976-28.89-77.769 0-6.818 0.573-13.503 1.673-20.008l-0.098 0.701c2.463-37.032 10.964-71.443 24.536-103.169l-0.779 2.049c-20.167-14.795-44.399-25.3-70.706-29.665l-0.974-0.134c-6.832-1.519-11.863-7.528-11.863-14.711 0-8.313 6.739-15.053 15.053-15.053 0.59 0 1.172 0.034 1.744 0.1l-0.070-0.007c32.239 5.313 60.876 17.722 85.265 35.588l-0.555-0.388c22.294-23.278 53.625-37.745 88.336-37.745 60.006 0 109.914 43.237 120.269 100.256l0.112 0.746 10.24 62.157c1.003 5.806 1.577 12.493 1.577 19.314 0 29.791-10.939 57.027-29.019 77.911l0.127-0.15zM142.003 208.589c0.039 0 0.086 0 0.133 0 27.752 0 52.623-12.339 69.425-31.83l0.1-0.119c13.458-15.545 21.658-35.964 21.658-58.299 0-5.105-0.428-10.111-1.251-14.982l0.073 0.525-10.24-62.157c-2.346-14.11-7.671-26.661-15.317-37.45l0.188 0.279-0.154-0.154c-0.546-0.634-1.053-1.337-1.498-2.082l-0.038-0.069c-16.928-22.142-43.355-36.282-73.085-36.282-45.020 0-82.467 32.425-90.261 75.196l-0.085 0.561-10.24 62.157c-0.75 4.346-1.178 9.351-1.178 14.456 0 22.334 8.2 42.753 21.753 58.411l-0.095-0.112c16.9 19.565 41.742 31.872 69.459 31.872 0.070 0 0.14 0 0.209 0h20.469zM658.637 929.946c0.403 0.006 0.878 0.009 1.354 0.009 53.415 0 96.717-43.302 96.717-96.717 0-37.694-21.563-70.351-53.027-86.31l-0.551-0.254c-7.641 14.489-15.418 26.807-24.025 38.475l0.576-0.818c19.245 8.197 32.492 26.95 32.492 48.798 0 29.21-23.679 52.89-52.89 52.89-0.236 0-0.471-0.002-0.706-0.005h0.036c-0.012 0-0.026 0-0.040 0-22.020 0-40.948-13.239-49.259-32.192l-0.135-0.345c-10.988 7.813-23.559 15.417-36.681 22.093l-1.719 0.793c16.607 32.055 49.529 53.582 87.479 53.582 0.134 0 0.267 0 0.401-0.001h-0.021zM658.637 810.138v0c-7.362 8.018-14.93 15.44-22.868 22.451l-0.325 0.282s0 0.128 0 0.205c0 0.053-0.001 0.116-0.001 0.179 0 12.824 10.396 23.219 23.219 23.219s23.219-10.396 23.219-23.219c0-12.814-10.381-23.204-23.191-23.219h-0.001zM188.467 833.178c0 0.019 0 0.042 0 0.064 0 12.831 10.401 23.232 23.232 23.232 12.808 0 23.196-10.365 23.232-23.165v-0.003c-8.4-7.389-16.085-14.912-23.354-22.822l-0.198-0.218c-12.614 0.087-22.814 10.296-22.886 22.905v0.007zM464.947 626.586l-23.808-40.96c-1.249-2.078-3.492-3.448-6.054-3.448s-4.805 1.369-6.037 3.416l-0.018 0.032-23.808 40.96c-0.612 0.988-0.975 2.186-0.975 3.469s0.363 2.481 0.992 3.497l-0.016-0.029c1.186 2.079 3.388 3.458 5.913 3.458 0.054 0 0.109-0.001 0.163-0.002h47.582c0.046 0.001 0.1 0.002 0.155 0.002 2.524 0 4.727-1.379 5.895-3.424l0.018-0.033c0.666-1.019 1.062-2.266 1.062-3.607 0-1.289-0.367-2.493-1.001-3.513l0.016 0.028zM390.707 591.36c5.767-15.207 16.006-27.627 29.095-35.972l0.294-0.175v-52.378c-7.175 2.44-13.31 6.306-18.332 11.292l0.003-0.003c-13.875 13.747-35.328-7.526-21.453-21.248 14.204-13.761 33.593-22.244 54.963-22.244s40.759 8.482 54.984 22.264l-0.021-0.020c13.875 13.747-7.68 34.995-21.453 21.248-5.019-4.983-11.154-8.85-17.997-11.191l-0.333-0.099v52.378c13.278 8.531 23.445 20.894 29.041 35.519l0.168 0.5c48.917-18.546 83.059-65.016 83.059-119.46 0-70.381-57.055-127.437-127.437-127.437s-127.437 57.055-127.437 127.437c0 54.444 34.142 100.915 82.184 119.168l0.876 0.292zM552.678 368.64c24.975 27.425 40.269 64.048 40.269 104.243 0 35.509-11.936 68.231-32.015 94.371l0.271-0.367c-17.218 22.361-39.779 39.797-65.809 50.532l-1.058 0.386c1.341 3.632 2.116 7.828 2.116 12.204 0 6.833-1.89 13.224-5.177 18.679l0.091-0.163c-6.519 11.143-18.429 18.51-32.059 18.51-0.096 0-0.193 0-0.289-0.001h-47.652c-0.081 0.001-0.178 0.001-0.274 0.001-13.63 0-25.539-7.366-31.964-18.335l-0.095-0.175c-3.195-5.292-5.086-11.683-5.086-18.516 0-4.376 0.776-8.572 2.197-12.456l-0.081 0.252c-27.117-11.102-49.705-28.532-66.669-50.522l-0.275-0.37c-19.803-25.774-31.735-58.494-31.735-94.001 0-40.341 15.403-77.084 40.648-104.67l-0.106 0.118c-91.644 43.721-153.924 135.475-154.317 241.817v0.052c0 0.078 0 0.17 0 0.262 0 39.734 8.783 77.417 24.513 111.213l-0.679-1.625c0.196 0.36 0.411 0.815 0.603 1.281l0.037 0.101c28.195 59.502 75.56 106.088 133.976 132.582l1.704 0.692h0.154c0.99 0.335 1.836 0.716 2.637 1.166l-0.077-0.040c31.853 14.171 69.016 22.423 108.108 22.423 148.843 0 269.745-119.633 271.794-267.99l0.002-0.193c-0.441-106.108-62.43-197.633-152.094-240.762l-1.608-0.697zM838.861 103.936l-10.24-62.157c-7.881-43.329-45.326-75.752-90.345-75.752-29.67 0-56.051 14.084-72.823 35.931l-0.161 0.218c-0.508 0.872-1.050 1.625-1.654 2.323l0.016-0.019-0.205 0.205c-7.431 10.491-12.736 23.016-15.006 36.569l-0.073 0.526-10.24 62.157c-0.75 4.346-1.178 9.351-1.178 14.456 0 22.334 8.2 42.753 21.753 58.411l-0.095-0.112c16.9 19.565 41.742 31.872 69.459 31.872 0.070 0 0.14 0 0.209 0h20.469c0.038 0 0.084 0 0.129 0 27.741 0 52.602-12.328 69.403-31.805l0.1-0.118c13.458-15.545 21.658-35.964 21.658-58.299 0-5.105-0.428-10.111-1.251-14.982l0.073 0.525zM297.139 730.726c-34.401-0.044-62.278-27.912-62.336-62.305v-0.006c0-8.702 7.055-15.757 15.757-15.757s15.757 7.055 15.757 15.757v0c0 17.037 13.811 30.848 30.848 30.848s30.848-13.811 30.848-30.848v0c0-8.702 7.055-15.757 15.757-15.757s15.757 7.055 15.757 15.757v0c-0.058 34.417-27.965 62.296-62.386 62.31h-0.001zM576.845 730.726c-34.401-0.044-62.278-27.912-62.336-62.305v-0.006c0-8.702 7.055-15.757 15.757-15.757s15.757 7.055 15.757 15.757v0c0 17.030 13.805 30.835 30.835 30.835s30.835-13.805 30.835-30.835v0c0-8.702 7.055-15.757 15.757-15.757s15.757 7.055 15.757 15.757v0c-0.058 34.408-27.95 62.281-62.359 62.31h-0.003z" />
<glyph unicode="&#xe919;" glyph-name="previous-thin" horiz-adv-x="597" d="M426.546-63.915v85.326h-85.326v85.326h-85.326v85.326h-85.326v85.326h-85.326v85.326h-85.326v170.652h85.326v85.326h85.326v85.326h85.326v85.326h85.326v85.326h85.326v85.326h170.652v-170.652h-85.326v-85.326h-85.326v-85.326h-85.326v-85.326h-85.326v-170.652h85.326v-85.326h85.326v-85.326h85.326v-85.326h85.326v-170.652z" />
<glyph unicode="&#xe91a;" glyph-name="plus" d="M426.667-64v426.667h-426.667v170.667h426.667v426.667h170.667v-426.667h426.667v-170.667h-426.667v-426.667z" />
<glyph unicode="&#xe91b;" glyph-name="cross" d="M853.333-64v85.333h-85.333v85.333h-85.333v85.333h-85.333v85.333h-170.667v-85.333h-85.333v-85.333h-85.333v-85.333h-85.333v-85.333h-170.667v170.667h85.333v85.333h85.333v85.333h85.333v85.333h85.333v170.667h-85.333v85.333h-85.333v85.333h-85.333v85.333h-85.333v170.667h170.667v-85.333h85.333v-85.333h85.333v-85.333h85.333v-85.333h170.667v85.333h85.333v85.333h85.333v85.333h85.333v85.333h170.667v-170.667h-85.333v-85.333h-85.333v-85.333h-85.333v-85.333h-85.333v-170.667h85.333v-85.333h85.333v-85.333h85.333v-85.333h85.333v-170.667z" />
<glyph unicode="&#xe91c;" glyph-name="categories" d="M884.364 75.636c-25.706 0-46.545 20.839-46.545 46.545v0c0 25.706 20.839 46.545 46.545 46.545v0h93.091c25.706 0 46.545-20.839 46.545-46.545v0c0-25.706-20.839-46.545-46.545-46.545v0zM665.321 89.6l-143.732 143.639c-53.647-40.679-121.523-65.164-195.118-65.164-0.131 0-0.262 0-0.393 0h0.020c-180.124 0-326.144 146.020-326.144 326.144v0c0 180.124 146.020 326.144 326.144 326.144v0c180.099 0 326.097-145.999 326.097-326.097 0-0.016 0-0.033 0-0.049v0.003c0-0.171 0.001-0.373 0.001-0.575 0-73.218-24.231-140.777-65.111-195.095l0.599 0.831 143.36-143.407c8.427-8.549 13.632-20.295 13.632-33.257s-5.204-24.708-13.637-33.262l0.006 0.006c-8.332-8.587-19.969-13.928-32.854-13.964h-0.007c-12.891 0.1-24.506 5.484-32.801 14.089l-0.014 0.014zM93.137 494.545v0c0-128.532 104.196-232.727 232.727-232.727v0c128.532 0 232.727 104.196 232.727 232.727v0c0 128.532-104.196 232.727-232.727 232.727v0c-0.014 0-0.030 0-0.047 0-128.532 0-232.727-104.196-232.727-232.727 0-0.115 0-0.229 0-0.344v0.018zM791.319 401.78c-25.706 0-46.545 20.839-46.545 46.545v0c0 25.706 20.839 46.545 46.545 46.545v0h186.182c25.706 0 46.545-20.839 46.545-46.545v0c0-25.706-20.839-46.545-46.545-46.545v0zM698.228 727.599c-25.706 0-46.545 20.839-46.545 46.545v0c0 25.706 20.839 46.545 46.545 46.545v0h279.273c25.706 0 46.545-20.839 46.545-46.545v0c0-25.706-20.839-46.545-46.545-46.545v0z" />
<glyph unicode="&#xe91d;" glyph-name="chevron-up" horiz-adv-x="1707" d="M682.78 960v-170.695h-170.695v-170.695h-170.695v-170.695h-170.695v-170.695h-170.695v-341.39h341.39v170.695h170.695v170.695h170.695v170.695h341.39v-170.695h170.695v-170.695h170.695v-170.695h341.39v341.39h-170.695v170.695h-170.695v170.695h-170.695v170.695h-170.695v170.695z" />
<glyph unicode="&#xe91e;" glyph-name="error" d="M511.968-63.983c-282.232 0-511.968 229.72-511.968 511.968s229.736 511.984 511.968 511.984c282.232 0 511.968-229.736 511.968-511.984s-229.736-511.968-511.968-511.968zM186.363 651.144c-36.935-58.965-58.309-128.633-58.309-203.159 0-211.627 172.302-383.914 383.914-383.914 74.558 0 144.178 21.374 203.175 58.293l-528.779 528.779zM511.968 831.914c-90.932 0-174.614-31.826-240.485-84.901l539.529-539.498c53.059 65.855 84.87 149.538 84.87 240.469 0 211.627-172.239 383.929-383.914 383.929z" />
<glyph unicode="&#xe91f;" glyph-name="home" d="M768.528 63.832c0 0.512-512.096 0-512.096 0s0 320.060 0 320.060c0 35.353-28.659 64.012-64.012 64.012s-64.012-28.659-64.012-64.012v0-320.060c0-70.706 57.318-128.024 128.024-128.024v0h512.096c70.568 0.182 127.704 57.43 127.704 128.024 0 0 0 0 0 0v0 320.060c0 35.353-28.659 64.012-64.012 64.012s-64.012-28.659-64.012-64.012v0-320.060zM920.365 462.627c10.785-9.274 24.921-14.921 40.376-14.921 19.992 0 37.777 9.448 49.134 24.124l0.106 0.143c9.003 11.43 14.44 26.036 14.44 41.913 0 20.46-9.030 38.81-23.322 51.284l-0.081 0.069-444.563 377.927c-12.136 10.449-28.049 16.812-45.449 16.812s-33.313-6.363-45.54-16.889l0.091 0.077-442.131-375.878c-14.39-12.544-23.432-30.905-23.432-51.379 0-15.893 5.449-30.514 14.58-42.095l-0.11 0.145c11.463-14.818 29.248-24.266 49.24-24.266 15.455 0 29.592 5.647 40.459 14.989l-0.082-0.069 407.756 345.025 408.141-347.073 0.448 0.32zM513.632 256.508c70.328 0.218 127.256 57.281 127.256 127.639 0 70.494-57.146 127.64-127.64 127.64-70.471 0-127.603-57.11-127.64-127.572v-0.004c0-0.019 0-0.042 0-0.065 0-70.494 57.146-127.64 127.64-127.64 0.135 0 0.27 0 0.405 0.001h-0.021z" />
<glyph unicode="&#xe920;" glyph-name="info" d="M511.968-64.014c-282.295 0-511.968 229.658-511.968 511.999s229.673 512.015 511.968 512.015c282.357 0 512.030-229.673 512.030-512.015s-229.673-511.999-512.030-511.999zM511.968 831.992c-211.799 0-383.976-172.192-383.976-384.007 0-211.799 172.177-383.992 383.976-383.992 211.862 0 384.038 172.192 384.038 383.992 0 211.815-172.177 384.007-384.038 384.007zM575.964 191.986h-127.992v320.011h127.992v-320.011zM575.964 575.993h-127.992v128.008h127.992v-128.008z" />
<glyph unicode="&#xe921;" glyph-name="chevron-right" d="M213.334-64v170.667h85.333v85.333h85.333v85.333h85.333v85.333h85.333v170.667h-85.333v85.333h-85.333v85.333h-85.333v85.333h-85.333v170.667h170.667v-85.333h85.333v-85.333h85.333v-85.333h85.333v-85.333h85.333v-85.333h85.333v-170.667h-85.333v-85.333h-85.333v-85.333h-85.333v-85.333h-85.333v-85.333h-85.333v-85.333z" />
<glyph unicode="&#xe922;" glyph-name="shopping" d="M622.336 506.508c-93.237 0-168.82-75.583-168.82-168.82s75.583-168.82 168.82-168.82c93.237 0 168.82 75.583 168.82 168.82v0c-0.106 93.194-75.626 168.714-168.81 168.82h-0.010zM622.336 207.22c-72.042 0-130.444 58.402-130.444 130.444s58.402 130.444 130.444 130.444c72.034 0 130.43-58.388 130.444-130.419v-0.001c-0.079-72.015-58.431-130.374-130.435-130.467h-0.009zM1004.172 51.735l-158.743 158.743c21.763 37.192 34.614 81.893 34.614 129.595 0 133.717-100.978 243.849-230.839 258.302l-1.174 0.106v341.527c-0.013 11.036-8.956 19.978-19.99 19.991h-608.025c-11.041 0-19.991-8.95-19.991-19.991v0-608.023c0-55.269 44.804-100.073 100.073-100.073v0h283.462c41.977-90.429 132.010-152.013 236.426-152.013 47.689 0 92.378 12.846 130.795 35.267l-1.234-0.665 158.743-158.743c12.287-12.358 29.298-20.006 48.096-20.006 37.454 0 67.817 30.363 67.817 67.817 0 18.798-7.648 35.81-20.003 48.093l-0.003 0.003zM100.096 271.988c-33.12 0.040-59.957 26.878-59.997 59.993v588.013h567.924v-320.279c-138.333-6.596-247.991-120.354-247.991-259.725 0-24.19 3.304-47.609 9.484-69.83l-0.434 1.828zM400.128 339.991c0 121.501 98.496 219.997 219.997 219.997s219.997-98.496 219.997-219.997c0-121.501-98.496-219.997-219.997-219.997v0c-121.482 0.093-219.944 98.522-220.090 219.983v0.014zM975.895-15.872c-5.047-5.012-12-8.109-19.677-8.109s-14.63 3.098-19.679 8.111l-153.482 153.598c14.596 11.838 27.492 24.734 38.949 38.846l0.381 0.485 153.6-153.484c5.012-5.047 8.109-12 8.109-19.677 0-7.723-3.135-14.714-8.202-19.77l-0.001-0.001zM622.173 427.38c-10.597 0-19.188-8.591-19.188-19.188s8.591-19.188 19.188-19.188v0c26.462-0.040 47.902-21.48 47.942-47.938v-0.004c0-10.597 8.591-19.188 19.188-19.188s19.188 8.591 19.188 19.188v0c-0.066 47.646-38.673 86.252-86.312 86.319h-0.006zM462.778 757.085v80.151c0 10.597-8.591 19.188-19.188 19.188s-19.188-8.591-19.188-19.188v0-80.151c-1.23-56.257-47.126-101.391-103.564-101.391s-102.333 45.134-103.562 101.277l-0.002 0.114v80.151c0 10.597-8.591 19.188-19.188 19.188s-19.188-8.591-19.188-19.188v0-80.151c0-78.404 63.559-141.964 141.964-141.964s141.964 63.559 141.964 141.964v0zM96.419 587.706c-10.594-0.013-19.177-8.604-19.177-19.2v0-95.907c0-10.597 8.591-19.188 19.188-19.188s19.188 8.591 19.188 19.188v0 95.907c0 10.604-8.596 19.2-19.2 19.2v0zM96.396 416.861c-10.567-0.015-19.128-8.584-19.128-19.153 0-10.578 8.575-19.153 19.153-19.153s19.153 8.575 19.153 19.153c0 5.29-2.144 10.079-5.611 13.545v0c-3.48 3.459-8.273 5.6-13.566 5.609h-0.002z" />
<glyph unicode="&#xe923;" glyph-name="success" d="M0 447.936c0.437 282.559 229.378 511.5 511.895 511.936h0.041c282.559-0.437 511.5-229.378 511.936-511.895v-0.041c-0.327-282.602-229.333-511.608-511.904-511.936h-0.032c-282.602 0.327-511.608 229.333-511.936 511.904v0.032zM127.984 447.936c0.182-211.978 171.974-383.77 383.934-383.952h0.018c211.963 0.218 383.734 171.989 383.952 383.931v0.021c-0.291 211.933-172.018 383.661-383.924 383.952h-0.028c-211.933-0.291-383.661-172.018-383.952-383.924v-0.028zM383.952 255.96v63.992h-63.992v63.992h-63.992v127.984h127.984v-63.992h127.984v63.992h63.992v63.992h63.992v63.992h127.984v-127.984h-63.992v-63.992h-63.992v-63.992h-63.992v-63.992h-63.992v-63.992z" />
<glyph unicode="&#xe924;" glyph-name="question" d="M448 0c0 35.346 28.654 64 64 64s64-28.654 64-64c0-35.346-28.654-64-64-64v0c-35.346 0-64 28.654-64 64v0zM448 256v128c0 35.346 28.654 64 64 64v0c106.039 0 192 85.961 192 192s-85.961 192-192 192c-106.039 0-192-85.961-192-192v0c0-35.346-28.654-64-64-64s-64 28.654-64 64v0c0.037 176.703 143.292 319.935 320 319.935 176.731 0 320-143.269 320-320 0-154.076-108.892-282.719-253.916-313.169l-2.084-0.366v-70.4c0-35.346-28.654-64-64-64s-64 28.654-64 64v0z" />
<glyph unicode="&#xe925;" glyph-name="user" d="M832 640c-0.012 176.722-143.276 319.979-320 319.979-176.731 0-320-143.269-320-320 0-97.12 43.266-184.136 111.575-242.822l0.425-0.357c-143.769-76.419-240-225.249-240-396.555 0-0.086 0-0.172 0-0.259v0.014c0-35.346 28.654-64 64-64s64 28.654 64 64v0c0 176.731 143.269 320 320 320s320-143.269 320-320v0c0-35.346 28.654-64 64-64s64 28.654 64 64v0c0 0.004 0 0.008 0 0.013 0 171.371-96.221 320.268-237.585 395.612l-2.415 1.175c68.728 58.92 112 145.834 112 242.855 0 0.121 0 0.243 0 0.364v-0.019zM512 448c-106.039 0-192 85.961-192 192s85.961 192 192 192c106.039 0 192-85.961 192-192v0c0-106.039-85.961-192-192-192v0z" />
<glyph unicode="&#xe926;" glyph-name="warning" d="M0 448.064c0.291 282.653 229.347 511.709 511.972 512h0.028c282.653-0.291 511.709-229.347 512-511.972v-0.028c-0.364-282.623-229.377-511.636-511.965-512h-0.035c-282.623 0.364-511.636 229.377-512 511.965v0.035zM128 448.064c0.255-211.975 172.025-383.745 383.975-384h0.025c211.975 0.255 383.745 172.025 384 383.975v0.025c-0.291 211.96-172.040 383.709-383.972 384h-0.028c-211.96-0.291-383.709-172.040-384-383.972v-0.028zM448 192.064v128h128v-128zM448 384.064v320h128v-320z" />
<glyph unicode="&#xe927;" glyph-name="wishlist" d="M925.44 348.8c-41.294-58.332-83.311-109.489-128.64-157.484l0.64 0.684c-44.8-48-91.968-94.528-139.392-137.856-28.608-26.048-51.2-45.44-64.64-56.64-21.984-18.317-50.526-29.435-81.664-29.435s-59.68 11.119-81.871 29.603l0.207-0.167c-13.44 11.2-36.032 30.72-64.64 56.704-47.488 43.328-94.976 89.6-139.648 137.856-44.419 47.184-86.285 98.189-124.56 151.929l-2.992 4.423c-55.855 70.419-91.823 158.889-98.167 255.448l-0.073 1.384c-0.141 3.496-0.222 7.6-0.222 11.723 0 86.433 35.335 164.614 92.348 220.884l0.034 0.033c56.817 55.71 134.721 90.093 220.656 90.093 75.804 0 145.359-26.754 199.739-71.334l-0.555 0.442c53.798 44.156 123.338 70.923 199.129 70.923 85.918 0 163.801-34.397 220.632-90.171l-0.049 0.048c56.879-56.267 92.101-134.327 92.101-220.613 0-3.892-0.072-7.767-0.214-11.624l0.016 0.557c-6.18-98.186-42.188-186.923-98.967-258.421l0.727 0.949zM841.152 746.752c-33.847 33.323-80.329 53.898-131.616 53.898s-97.768-20.575-131.64-53.922l0.024 0.024-65.92-65.408-66.304 65.408c-33.945 33.237-80.466 53.747-131.776 53.747s-97.83-20.51-131.809-53.779l0.033 0.032c-33.581-33.178-54.378-79.229-54.378-130.138 0-3.255 0.085-6.49 0.253-9.704l-0.019 0.449c-2.816-190.912 384-511.36 384-511.36s386.368 320 384 511.36c0.14 2.675 0.22 5.807 0.22 8.958 0 51.021-20.978 97.143-54.779 130.21l-0.033 0.032z" />
<glyph unicode="&#xe928;" glyph-name="wishlist-full" horiz-adv-x="1092" d="M702.080 27.763c-30.519-27.788-54.621-48.476-68.959-60.424-23.453-19.54-53.901-31.402-87.12-31.402s-63.667 11.862-87.34 31.58l0.22-0.179c-14.338 11.948-38.371 32.772-68.959 60.492-50.524 46.223-101.253 95.586-148.841 147.066-47.474 50.334-92.161 104.75-132.976 162.112l-3.166 4.685c-59.654 75.104-98.075 169.487-104.862 272.512l-0.078 1.478c-0.151 3.73-0.236 8.108-0.236 12.506 0 92.208 37.696 175.611 98.518 235.641l0.036 0.035c60.612 59.432 143.722 96.112 235.398 96.112 80.868 0 155.071-28.541 213.083-76.1l-0.592 0.471c57.393 47.106 131.578 75.661 212.433 75.661 91.658 0 174.745-36.695 235.372-96.195l-0.052 0.051c60.679-60.026 98.255-143.301 98.255-235.352 0-4.152-0.076-8.286-0.228-12.4l0.017 0.594c-6.502-104.728-44.852-199.404-105.376-275.689l0.778 1.016c-43.99-62.234-88.817-116.811-137.211-167.979l0.66 0.703c-47.793-51.207-98.181-100.843-148.841-147.066z" />
<glyph unicode="&#xe929;" glyph-name="chevron-left" horiz-adv-x="640" d="M0 320h128v-128h128v-128h128v-128h256v256h-128v128h-128v256h128v128h128v256h-256v-128h-128v-128h-128v-128h-128z" />
<glyph unicode="&#xe92a;" glyph-name="bars" horiz-adv-x="896" d="M767.952-0.004v895.944c0 35.344 28.652 63.996 63.996 63.996v0c35.344 0 63.996-28.652 63.996-63.996v0-895.944c0-35.344-28.652-63.996-63.996-63.996v0c-35.344 0-63.996 28.652-63.996 63.996v0zM383.976-0.004v639.96c0 35.344 28.652 63.996 63.996 63.996v0c35.344 0 63.996-28.652 63.996-63.996v0-639.96c0-35.344-28.652-63.996-63.996-63.996v0c-35.344 0-63.996 28.652-63.996 63.996v0zM0-0.004v383.976c0 35.344 28.652 63.996 63.996 63.996v0c35.344 0 63.996-28.652 63.996-63.996v0-383.976c0-35.344-28.652-63.996-63.996-63.996v0c-35.344 0-63.996 28.652-63.996 63.996v0z" />
<glyph unicode="&#xe92b;" glyph-name="info-error" d="M512-64c-282.77 0-512 229.23-512 512s229.23 512 512 512c282.77 0 512-229.23 512-512v0c-0.34-282.633-229.367-511.66-511.967-512h-0.033zM512 533.333c-47.128 0-85.333-38.205-85.333-85.333v0-256c0-47.128 38.205-85.333 85.333-85.333s85.333 38.205 85.333 85.333v0 256c0 47.128-38.205 85.333-85.333 85.333v0zM512 789.333c-47.128 0-85.333-38.205-85.333-85.333s38.205-85.333 85.333-85.333c47.128 0 85.333 38.205 85.333 85.333v0c0 47.128-38.205 85.333-85.333 85.333v0z" />
<glyph unicode="&#xe92c;" glyph-name="checkmark-round" d="M0 447.863c0 282.77 229.23 512 512 512s512-229.23 512-512c0-282.77-229.23-512-512-512v0c-282.583 0.466-511.535 229.418-512 511.956v0.044zM136.533 447.863c0-207.365 168.102-375.467 375.467-375.467s375.467 168.102 375.467 375.467c0 207.365-168.102 375.467-375.467 375.467v0c-207.255-0.272-375.195-168.212-375.467-375.44v-0.026zM409.6 277.197v68.267h-68.267v68.267h-68.267v136.533h136.533v-68.267h136.533v68.267h68.267v68.267h136.533v-136.533h-68.267v-68.267h-68.267v-68.267h-68.267v-68.267z" />
<glyph unicode="&#xe92d;" glyph-name="no-products" horiz-adv-x="1170" d="M994.743 960v0c16.158 0 29.257-13.099 29.257-29.257v-453.486c0-16.158-13.099-29.257-29.257-29.257s-29.257 13.099-29.257 29.257v409.6c0 8.079-6.549 14.629-14.629 14.629h-877.714c-8.079 0-14.629-6.549-14.629-14.629v-775.314c0-64.633 52.395-117.029 117.029-117.029h497.371c16.158 0 29.257-13.099 29.257-29.257s-13.099-29.257-29.257-29.257h-526.629c-80.791 0-146.286 65.494-146.286 146.286v848.457c0 16.158 13.099 29.257 29.257 29.257zM1170.286 155.429v0c0 121.187-98.242 219.429-219.429 219.429v0c-121.187 0-219.429-98.242-219.429-219.429s98.242-219.429 219.429-219.429c121.187 0 219.429 98.242 219.429 219.429zM1111.771 155.429c0-88.871-72.044-160.914-160.914-160.914s-160.914 72.044-160.914 160.914c0 88.871 72.044 160.914 160.914 160.914v0c88.871 0 160.914-72.044 160.914-160.914v0zM321.829 755.2c0 16.158 13.099 29.257 29.257 29.257s29.257-13.099 29.257-29.257v0-175.543c0-72.712 58.945-131.657 131.657-131.657s131.657 58.945 131.657 131.657v0 175.543c0 16.158 13.099 29.257 29.257 29.257s29.257-13.099 29.257-29.257v0-175.543c0-105.029-85.143-190.171-190.171-190.171s-190.171 85.143-190.171 190.171v0zM175.543 82.286c16.158 0 29.257 13.099 29.257 29.257s-13.099 29.257-29.257 29.257c-16.158 0-29.257-13.099-29.257-29.257v0c0-16.158 13.099-29.257 29.257-29.257v0zM146.286 374.857c0 16.158 13.099 29.257 29.257 29.257s29.257-13.099 29.257-29.257v0-146.286c0-16.158-13.099-29.257-29.257-29.257s-29.257 13.099-29.257 29.257v0zM886.287 219.999c5.294 5.293 12.607 8.566 20.685 8.566s15.391-3.273 20.685-8.566l23.201-23.201 23.201 23.201c5.256 5.081 12.425 8.213 20.325 8.213 16.158 0 29.257-13.099 29.257-29.257 0-7.9-3.131-15.069-8.221-20.333l-23.193-23.193 23.201-23.201c5.081-5.256 8.213-12.425 8.213-20.325 0-16.158-13.099-29.257-29.257-29.257-7.9 0-15.069 3.131-20.333 8.221l-23.193 23.193-23.201-23.201c-5.256-5.081-12.425-8.213-20.325-8.213-16.158 0-29.257 13.099-29.257 29.257 0 7.9 3.131 15.069 8.221 20.333l23.193 23.193-23.201 23.201c-5.293 5.294-8.566 12.607-8.566 20.685s3.273 15.391 8.566 20.685v0z" />
<glyph unicode="&#xe92e;" glyph-name="no-wishlist" horiz-adv-x="1170" d="M297.247 957.006c83.036 11.019 167.254-8.596 236.73-55.133 69.427 46.481 153.568 66.083 236.537 55.104 82.967-10.978 159.023-51.777 213.805-114.693s84.5-143.595 83.545-226.807c-0.648-56.386-15.351-111.291-42.256-160.016-5.004-9.062-15.266-13.324-25.474-11.593-19.8 3.359-32.034 27.704-22.728 45.499 20.351 38.916 31.437 82.305 31.947 126.783 0.791 68.816-23.783 135.591-69.164 187.709-45.39 52.128-108.464 85.994-177.351 95.109-68.892 9.115-138.726-7.168-196.308-45.719l-32.56-21.8-32.557 21.808c-57.622 38.598-127.522 54.892-196.468 45.743-68.944-9.149-132.055-43.089-177.43-95.306-45.368-52.208-69.878-119.075-68.975-187.949 0.9-68.734 27.049-134.818 73.595-185.797l401.859-425.634 85.328 90.393c15.032 15.925 43.222 6.072 48.881-15.082 2.361-8.827 0.23-18.135-6.043-24.779l-101.329-107.344c-3.449-3.638-7.611-6.535-12.229-8.512s-9.595-2.994-14.624-2.987c-5.031-0.001-10.009 1.020-14.627 3.005s-8.779 4.887-12.225 8.531l-417.857 442.579c-56.4 61.585-88.147 141.581-89.238 224.863-1.091 83.28 28.55 164.073 83.317 227.097s130.865 103.912 213.901 114.931zM927.659 220.002c-11.425 11.426-29.951 11.426-41.375 0-11.426-11.425-11.426-29.951 0-41.375l23.198-23.198-23.198-23.198c-11.426-11.425-11.426-29.951 0-41.375 11.425-11.426 29.951-11.426 41.375 0l23.198 23.198 23.198-23.198c11.425-11.426 29.951-11.426 41.375 0 11.426 11.425 11.426 29.951 0 41.375l-23.198 23.198 23.198 23.198c11.426 11.425 11.426 29.951 0 41.375-11.425 11.426-29.951 11.426-41.375 0l-23.198-23.198-23.198 23.198zM950.857-64c-121.187 0-219.429 98.241-219.429 219.429s98.241 219.429 219.429 219.429c121.187 0 219.429-98.241 219.429-219.429s-98.241-219.429-219.429-219.429zM950.857-5.486c88.87 0 160.914 72.044 160.914 160.914s-72.044 160.914-160.914 160.914c-88.87 0-160.914-72.044-160.914-160.914s72.044-160.914 160.914-160.914z" />
<glyph unicode="&#xe92f;" glyph-name="quote" horiz-adv-x="1311" d="M532.48 960v0c45.243 0 81.92-36.677 81.92-81.92v-696.32c0-135.73-110.030-245.76-245.76-245.76h-245.76v163.84h204.8c67.865 0 122.88 55.015 122.88 122.88v81.92h-368.64c-45.243 0-81.92 36.677-81.92 81.92v491.52c0 45.243 36.677 81.92 81.92 81.92zM450.56 796.16h-286.72v-327.68h286.72zM1228.8 960v0c45.243 0 81.92-36.677 81.92-81.92v-696.32c0-135.73-110.030-245.76-245.76-245.76h-245.76v163.84h204.8c67.865 0 122.88 55.015 122.88 122.88v81.92h-368.64c-45.243 0-81.92 36.677-81.92 81.92v491.52c0 45.243 36.677 81.92 81.92 81.92zM1146.88 796.16h-286.72v-327.68h286.72z" />
<glyph unicode="&#xe930;" glyph-name="menu, hamburger" d="M64.064-64.064c-35.346 0-64 28.654-64 64v0c0 35.346 28.654 64 64 64v0h896c35.346 0 64-28.654 64-64v0c0-35.346-28.654-64-64-64v0zM64.064 383.936c-35.346 0-64 28.654-64 64v0c0 35.346 28.654 64 64 64v0h896c35.346 0 64-28.654 64-64v0c0-35.346-28.654-64-64-64v0zM64.064 831.936c-35.346 0-64 28.654-64 64v0c0 35.346 28.654 64 64 64v0h896c35.346 0 64-28.654 64-64v0c0-35.346-28.654-64-64-64v0z" />
<glyph unicode="&#xe931;" glyph-name="pin, gps" horiz-adv-x="768" d="M384-64c-127.36 0-384 415.104-384 641.152 0 212.077 171.923 384 384 384s384-171.923 384-384v0c0-226.048-256.64-641.152-384-641.152zM384 830.208c-0.325 0.001-0.71 0.002-1.095 0.002-140.132 0-253.855-113.074-254.905-252.958l-0.001-0.1c14.045-128.59 59.23-244.427 127.792-342.751l-1.584 2.399c31.588-51.53 64.607-96.156 101.059-137.696l-0.963 1.12c15.104-16 29.696-29.184 29.696-29.184s14.72 12.8 29.76 29.184c35.522 40.413 68.524 85.043 97.609 132.34l2.423 4.236c66.971 95.907 112.155 211.721 125.914 336.992l0.294 3.296c-1.050 139.984-114.773 253.058-254.905 253.058-0.385 0-0.769-0.001-1.154-0.003h0.059zM384 446.208c-70.118 0.339-126.828 57.258-126.828 127.423 0 70.374 57.050 127.424 127.424 127.424s127.424-57.050 127.424-127.424c0-35.415-14.447-67.455-37.77-90.548l-0.010-0.010c-22.9-22.632-54.393-36.613-89.152-36.613-0.383 0-0.765 0.002-1.147 0.005h0.059z" />
<glyph unicode="&#xe932;" glyph-name="quantity-minus" horiz-adv-x="4096" d="M512 960h3072c282.77 0 512-229.23 512-512v0c0-282.77-229.23-512-512-512v0h-3072c-282.77 0-512 229.23-512 512v0c0 282.77 229.23 512 512 512v0z" />
<glyph unicode="&#xe933;" glyph-name="compare" horiz-adv-x="1229" d="M807.526 686.933c-28.933-80.282-104.448-136.644-193.126-136.644s-164.193 56.362-192.676 135.218l-0.45 1.427h-353.007v136.533h353.007c28.906 80.333 104.446 136.741 193.161 136.741s164.255-56.408 192.711-135.314l0.449-1.427h352.939v-136.533zM546.133 755.2c0-37.703 30.564-68.267 68.267-68.267s68.267 30.564 68.267 68.267c0 37.703-30.564 68.267-68.267 68.267v0c-37.703 0-68.267-30.564-68.267-68.267v0zM0 209.067c0-150.811 122.256-273.067 273.067-273.067s273.067 122.256 273.067 273.067v0l-204.8 409.6h-136.533zM273.067 482.133l136.533-273.067h-273.067zM887.467 618.667h136.533l204.8-409.6c0-150.811-122.256-273.067-273.067-273.067s-273.067 122.256-273.067 273.067zM1092.267 209.067l-136.533 273.067-136.533-273.067z" />
<glyph unicode="&#xe934;" glyph-name="cross-round" d="M0 447.863c0 282.77 229.23 512 512 512s512-229.23 512-512c0-282.77-229.23-512-512-512v0c-282.583 0.466-511.535 229.418-512 511.956v0.044zM136.533 447.863c0-207.365 168.102-375.467 375.467-375.467s375.467 168.102 375.467 375.467c0 207.365-168.102 375.467-375.467 375.467v0c-207.255-0.272-375.195-168.212-375.467-375.44v-0.026zM546.133 277.197v136.533h136.533v-136.533zM341.333 277.197v136.533h68.267v68.267h-68.267v136.533h136.533v-68.267h68.267v68.267h136.533v-136.533h-68.267v-68.267h-68.267v-68.267h-68.267v-68.267z" />
<glyph unicode="&#xe935;" glyph-name="eye" horiz-adv-x="1408" d="M704 960c-448 0-704-512-704-512s256-512 704-512c448 0 704 512 704 512s-256 512-704 512zM147.791 448c2.145 3.405 4.389 6.927 6.733 10.557 28.011 43.371 69.4 100.879 122.856 157.899 109.246 116.529 253.757 215.544 426.62 215.544s317.376-99.016 426.618-215.544c53.459-57.020 94.848-114.528 122.854-157.899 2.349-3.63 4.595-7.152 6.739-10.557-2.144-3.404-4.39-6.927-6.739-10.557-28.006-43.371-69.395-100.879-122.854-157.898-109.242-116.531-253.754-215.546-426.618-215.546s-317.373 99.014-426.62 215.546c-53.455 57.018-94.845 114.527-122.856 157.898-2.344 3.63-4.589 7.153-6.733 10.557zM896 448c0 106.038-85.958 192-192 192-106.038 0-192-85.962-192-192s85.962-192 192-192c106.042 0 192 85.962 192 192z" />
<glyph unicode="&#xe936;" glyph-name="menu-round" d="M149.962 85.962c-92.635 92.146-149.964 219.705-149.964 360.655 0 0.486 0.001 0.972 0.002 1.458v-0.075c-0.001 0.404-0.002 0.882-0.002 1.361 0 140.957 57.329 268.523 149.942 360.655l0.022 0.021c92.154 92.635 219.72 149.964 360.677 149.964 0.479 0 0.957-0.001 1.435-0.002h-0.074c0.404 0.001 0.882 0.002 1.361 0.002 140.957 0 268.523-57.329 360.655-149.942l0.021-0.022c92.635-92.154 149.964-219.72 149.964-360.677 0-0.479-0.001-0.957-0.002-1.435v0.074c0.001-0.407 0.002-0.89 0.002-1.372 0-140.953-57.329-268.516-149.942-360.644l-0.022-0.022c-92.154-92.635-219.72-149.964-360.677-149.964-0.479 0-0.957 0.001-1.435 0.002h0.074c-0.404-0.001-0.882-0.002-1.361-0.002-140.957 0-268.523 57.329-360.655 149.942l-0.021 0.022zM53.895 448c0.291-252.887 205.218-457.814 458.077-458.105h0.029c252.887 0.291 457.814 205.218 458.105 458.077v0.029c-0.307 252.881-205.224 457.799-458.076 458.105h-0.030c-252.881-0.307-457.799-205.224-458.105-458.076v-0.030zM350.316 232.421c-14.883 0-26.947 12.065-26.947 26.947v0c0 14.883 12.065 26.947 26.947 26.947v0h323.368c14.883 0 26.947-12.065 26.947-26.947v0c0-14.883-12.065-26.947-26.947-26.947v0zM350.316 421.053c-14.883 0-26.947 12.065-26.947 26.947v0c0 14.883 12.065 26.947 26.947 26.947v0h323.368c14.883 0 26.947-12.065 26.947-26.947v0c0-14.883-12.065-26.947-26.947-26.947v0zM350.316 609.684c-14.883 0-26.947 12.065-26.947 26.947v0c0 14.883 12.065 26.947 26.947 26.947v0h323.368c14.883 0 26.947-12.065 26.947-26.947v0c0-14.883-12.065-26.947-26.947-26.947v0z" />
<glyph unicode="&#xe937;" glyph-name="next" horiz-adv-x="640" d="M0-64v256h128v128h128v256h-128v128h-128v256h256v-128h128v-128h128v-128h128v-256h-128v-128h-128v-128h-128v-128z" />
<glyph unicode="&#xe938;" glyph-name="previous" horiz-adv-x="640" d="M640-64v256h-128v128h-128v256h128v128h128v256h-256v-128h-128v-128h-128v-128h-128v-256h128v-128h128v-128h128v-128z" />
<glyph unicode="&#xe939;" glyph-name="sort-by" horiz-adv-x="683" d="M256.021-64.085v85.34h-85.34v85.34h-85.34v85.34h-85.34v170.681h170.681v-85.34h85.34v682.724h170.681v-682.724h85.34v85.34h170.681v-170.681h-85.34v-85.34h-85.34v-85.34h-85.34v-85.34zM341.362 106.596v0z" />
<glyph unicode="&#xe93a;" glyph-name="quantity-plus" d="M383.952 64.112v255.968h-255.968c-70.684 0-127.984 57.3-127.984 127.984v0c0 70.684 57.3 127.984 127.984 127.984v0h255.968v255.968c0 70.684 57.3 127.984 127.984 127.984v0c70.684 0 127.984-57.3 127.984-127.984v0-255.968h255.968c70.684 0 127.984-57.3 127.984-127.984v0c0-70.684-57.3-127.984-127.984-127.984v0h-255.968v-255.968c0-70.684-57.3-127.984-127.984-127.984v0c-70.684 0-127.984 57.3-127.984 127.984v0z" />
<glyph unicode="&#xe93b;" glyph-name="no-products-found" horiz-adv-x="1070" d="M524.877-61.417l-386.421 213.408c-6.51 3.655-10.836 10.515-10.836 18.386 0 0.011 0 0.022 0 0.033v-0.002 215.502l-116.784 64.559c-6.519 3.668-10.851 10.543-10.851 18.43 0 5.798 2.341 11.049 6.129 14.859l-0.001-0.001 112.825 113.467-112.825 113.482c-3.782 3.809-6.119 9.056-6.119 14.849 0 7.883 4.327 14.754 10.736 18.37l0.105 0.055 386.436 213.423c2.907 1.643 6.383 2.611 10.085 2.611 5.759 0 10.97-2.342 14.735-6.125l112.841-113.529 112.84 113.528c3.765 3.784 8.977 6.126 14.736 6.126 3.702 0 7.178-0.968 10.189-2.665l-0.104 0.054 111.572-61.655c6.515-3.666 10.843-10.536 10.843-18.416 0-3.711-0.96-7.198-2.645-10.226l0.055 0.107c-3.605-6.506-10.431-10.837-18.268-10.837-3.652 0-7.084 0.94-10.068 2.592l0.107-0.054-97.816 54.059-96.96-97.388 348.272-192.347 96.823 97.388-111.236 61.441c-6.519 3.669-10.849 10.543-10.849 18.429 0 3.706 0.956 7.188 2.636 10.214l-0.055-0.108c3.598 6.546 10.448 10.908 18.316 10.908 3.694 0 7.163-0.961 10.171-2.647l-0.105 0.054 135.644-74.891c6.509-3.675 10.832-10.547 10.832-18.428 0-5.79-2.333-11.035-6.11-14.846l0.002 0.002-112.84-113.482 112.84-113.528c3.776-3.81 6.109-9.055 6.109-14.845 0-7.881-4.323-14.753-10.726-18.373l-0.105-0.055-116.768-64.482v-215.502c0-0.009 0-0.020 0-0.031 0-7.87-4.326-14.73-10.731-18.331l-0.106-0.055-386.436-213.484c-2.901-1.628-6.367-2.586-10.057-2.586s-7.156 0.959-10.162 2.64l0.105-0.054zM555.826 207.364v-214.829l344.65 190.314v180.043l-227.882-125.816c-2.902-1.638-6.373-2.603-10.069-2.603-5.776 0-11.001 2.358-14.766 6.163l-0.002 0.002-112.825 113.467-112.84-113.482c-3.767-3.807-8.992-6.165-14.768-6.165-3.696 0-7.166 0.965-10.173 2.657l0.104-0.054-227.866 125.832v-180.043l344.65-190.314v214.829c0 11.539 9.354 20.893 20.893 20.893s20.893-9.354 20.893-20.893v0zM569.398 378.894l96.823-97.404 348.287 192.347-96.838 97.373zM55.373 473.822l348.272-192.331 96.838 97.388-348.287 192.331zM191.934 597.239l342.999-189.443 343.015 189.443-343.015 189.443zM55.373 720.625l96.823-97.388 348.257 192.347-96.808 97.388zM520.169 262.294c-3.795 3.788-6.143 9.025-6.143 14.81 0 11.556 9.368 20.924 20.924 20.924s20.924-9.368 20.924-20.924c0-11.556-9.368-20.924-20.924-20.924-0.006 0-0.011 0-0.017 0h0.001c-5.761 0.026-10.973 2.356-14.766 6.115l0.002-0.002zM831.118 823.821c-3.774 3.775-6.107 8.989-6.107 14.749 0 11.522 9.34 20.862 20.862 20.862s20.862-9.34 20.862-20.862c0-11.519-9.335-20.857-20.853-20.862v0c-5.764 0.010-10.98 2.344-14.765 6.114l0.001-0.001z" />
<glyph unicode="&#xe93c;" glyph-name="google" d="M60.992 205.376c-38.402 69.94-60.993 153.26-60.993 241.856 0 0.27 0 0.54 0.001 0.81v-0.042c0 0.254-0.001 0.555-0.001 0.856 0 85.739 21.165 166.535 58.555 237.448l-1.338-2.784c87.082 165.533 257.892 276.48 454.614 276.48 0.060 0 0.119 0 0.179 0h-0.010c0.245 0 0.534 0.001 0.823 0.001 124.373 0 238.343-44.541 326.828-118.542l-0.804 0.654-165.888-135.808c-45.536 28.876-100.989 46.016-160.445 46.016-0.181 0-0.362 0-0.543 0h0.028c-0.016 0-0.036 0-0.055 0-132.698 0-245.572-84.879-287.29-203.307l-0.655-2.133c-10.424-29.432-16.448-63.375-16.448-98.725 0-0.054 0-0.109 0-0.163v0.009c0-0.151 0-0.329 0-0.507 0-38.163 7.043-74.682 19.899-108.327l-0.699 2.082c44.552-116.426 155.353-197.604 285.117-197.632h0.003c0.090 0 0.197 0 0.303 0 56.515 0 109.414 15.48 154.688 42.431l-1.391-0.767c59.909 35.587 105.795 89.393 130.557 153.687l0.707 2.089h-273.728v202.56h491.776c5.79-28.713 9.141-61.75 9.216-95.556v-0.060c0-0.071 0-0.156 0-0.24 0-37.769-4.079-74.586-11.822-110.033l0.622 3.393c-26.013-118.917-90.413-219.821-179.313-291.59l-0.975-0.762c-86.665-70.24-198.285-112.768-319.838-112.768-0.237 0-0.474 0-0.711 0h0.036c-0.043 0-0.094 0-0.145 0-193.898 0-362.622 107.784-449.525 266.705l-1.338 2.671z" />
<glyph unicode="&#xe93d;" glyph-name="checkbox-checkmark" horiz-adv-x="1280" d="M256-64v128h-128v128h-128v256h256v-128h256v128h128v128h128v128h128v128h128v128h256v-256h-128v-128h-128v-128h-128v-128h-128v-128h-128v-128h-128v-128z" />
<glyph unicode="&#xe93e;" glyph-name="arrow-right" horiz-adv-x="2048" d="M1664-64v128h128v128h128v128h128v256h-128v128h-128v128h-128v128h-256v-256h128v-128h-1536v-256h1536v-128h-128v-256z" />
<glyph unicode="&#xe93f;" glyph-name="arrow-left" horiz-adv-x="2048" d="M384-64v128h-128v128h-128v128h-128v256h128v128h128v128h128v128h256v-256h-128v-128h1536v-256h-1536v-128h128v-256z" />
<glyph unicode="&#xe940;" glyph-name="arrow-right1" horiz-adv-x="1843" d="M1228.8-64v204.8h102.4v102.4h102.4v102.4h-1433.6v204.8h1433.6v102.4h-102.4v102.4h-102.4v204.8h204.8v-102.4h102.4v-102.4h102.4v-102.4h102.4v-102.4h102.4v-204.8h-102.4v-102.4h-102.4v-102.4h-102.4v-102.4h-102.4v-102.4z" />
<glyph unicode="&#xe941;" glyph-name="arrow-left1" horiz-adv-x="2048" d="M384-64v128h-128v128h-128v128h-128v256h128v128h128v128h128v128h256v-256h-128v-128h1536v-256h-1536v-128h128v-256z" />
<glyph unicode="&#xe942;" glyph-name="play_arrow" d="M341.333 669.013v-442.027c0-33.707 37.12-54.187 65.707-35.84l347.307 221.013c26.453 16.64 26.453 55.040 0 72.107l-347.307 220.587c-28.587 18.347-65.707-2.133-65.707-35.84z" />
<glyph unicode="" glyph-name="play_arrow" d="M341.333 669.013v-442.027c0-33.707 37.12-54.187 65.707-35.84l347.307 221.013c26.453 16.64 26.453 55.040 0 72.107l-347.307 220.587c-28.587 18.347-65.707-2.133-65.707-35.84z" />
<glyph unicode="youtube" glyph-name="youtube" horiz-adv-x="1463" d="M1432.722 799.744c-17.446 62.939-66.012 111.505-127.662 128.645l-1.288 0.306c-114.469 31.305-572.343 31.305-572.343 31.305s-457.874 0-572.343-30.135c-62.816-18.33-111.178-67.079-128.633-128.804l-0.318-1.317c-19.193-102.209-30.171-219.793-30.171-339.941 0-4.15 0.013-8.298 0.039-12.442l-0.003 0.638c-0.026-3.687-0.040-8.048-0.040-12.412 0-119.935 10.979-237.306 31.988-351.162l-1.813 11.83c17.459-62.931 66.019-111.491 127.662-128.645l1.289-0.306c115.639-31.305 572.343-31.305 572.343-31.305s457.874 0 572.343 30.135c62.923 17.433 111.483 65.969 128.645 127.589l0.306 1.289c19.193 102.23 30.171 219.839 30.171 340.012 0 4.151-0.013 8.299-0.039 12.443l0.003-0.638c0.079 6.33 0.124 13.808 0.124 21.297 0 117.24-11.011 231.909-32.056 343.028l1.797-11.41zM585.655 228.718v438.857l380.782-219.429z" />
<glyph unicode="wrench" glyph-name="wrench" d="M834.526 72.533l18.807 18.807-220.126 220.126-18.807-18.807zM868.659 106.667l18.807 18.807-220.126 220.126-18.807-18.807zM491.861 448l20.139 20.139-321.195 321.195-20.139-20.139zM204.8 755.2h-91.785l-78.882 118.238 52.463 52.429 118.204-78.916zM130.901 788.378h40.721v40.789l-80.794 53.999-13.926-13.926zM949.248-64h-78.848l-392.533 392.158 153.6 153.975 392.533-392.158v-78.882zM883.814-31.3h51.849l55.808 55.774v51.849l-360.004 359.595-107.418-107.383zM507.085 345.6l-63.351 63.351 107.281 107.315 63.386-63.351zM484.693 408.951l22.494-22.494 66.423 66.423-22.528 22.494zM873.813-29.867l116.053 116.053-20.48 20.48-116.053-116.053zM921.6 857.6h-34.133v-34.133h34.133zM853.333 652.8c-75.096 0.764-135.77 61.437-136.533 136.461l-0.001 0.073h34.133c2.484-55.527 46.873-99.916 102.17-102.392l0.23-0.008zM680.175 482.133l-22.835 23.552 117.794 121.412h71.373c40.336 0.165 76.717 16.963 102.665 43.886l0.042 0.044c26.38 27.356 42.633 64.635 42.633 105.709 0 0.037 0 0.073 0 0.11v-0.006 16.691h-9.455l-87.552-90.146-119.74 123.494 87.415 90.112v9.694h-16.009c-40.336-0.165-76.717-16.963-102.665-43.886l-0.042-0.044c-26.36-27.352-42.598-64.617-42.598-105.674 0-0.049 0-0.098 0-0.147v0.008-73.557l-166.229-171.349-22.972 23.586 156.774 161.587v59.665c0 0.079 0 0.173 0 0.267 0 50.188 19.856 95.738 52.142 129.223l-0.054-0.057c31.788 32.99 76.302 53.528 125.614 53.692h48.466v-56.798l-74.172-76.322 74.069-76.322 74.035 76.322h55.125v-49.971c0-0.075 0-0.164 0-0.253 0-50.192-19.856-95.747-52.142-129.237l0.054 0.057c-31.734-32.934-76.151-53.459-125.362-53.692h-58.070zM136.533 72.533h-34.133v-34.133h34.133zM307.2 106.667h-34.133c-2.484 55.527-46.873 99.916-102.17 102.392l-0.23 0.008v34.133c75.096-0.764 135.77-61.437 136.533-136.461l0.001-0.073zM183.091-64h-49.971v55.125l76.322 74.069-76.322 74.035-76.322-74.035h-56.798v48.299c0.193 49.305 20.726 93.777 53.638 125.491l0.054 0.052c33.428 32.231 78.979 52.088 129.167 52.088 0.082 0 0.164 0 0.245 0h59.652l161.587 156.877 23.552-22.835-171.315-166.195h-73.489c-0.031 0-0.068 0-0.104 0-41.074 0-78.353-16.252-105.755-42.677l0.046 0.044c-27.024-26.012-43.853-62.448-43.998-102.817v-16.172h9.728l90.112 87.552 123.426-119.706-90.112-87.45v-9.455h16.623c0.041 0 0.091 0 0.14 0 41.057 0 78.321 16.239 105.721 42.643l-0.047-0.045c26.981 25.953 43.808 62.292 44.032 102.563v71.449l121.412 117.76 23.552-22.835-111.616-108.305v-58.027c-0.193-49.305-20.726-93.777-53.638-125.491l-0.054-0.052c-33.412-32.15-78.906-51.951-129.025-51.951-0.156 0-0.311 0-0.466 0.001h0.024z" />
<glyph unicode="wishlist-round" glyph-name="wishlist-round" d="M149.962 85.962c-92.635 92.146-149.964 219.705-149.964 360.655 0 0.486 0.001 0.972 0.002 1.458v-0.075c-0.001 0.404-0.002 0.882-0.002 1.361 0 140.957 57.329 268.523 149.942 360.655l0.022 0.021c92.154 92.635 219.72 149.964 360.677 149.964 0.479 0 0.957-0.001 1.435-0.002h-0.074c0.404 0.001 0.882 0.002 1.361 0.002 140.957 0 268.523-57.329 360.655-149.942l0.021-0.022c92.635-92.154 149.964-219.72 149.964-360.677 0-0.479-0.001-0.957-0.002-1.435v0.074c0.001-0.407 0.002-0.89 0.002-1.372 0-140.953-57.329-268.516-149.942-360.644l-0.022-0.022c-92.154-92.635-219.72-149.964-360.677-149.964-0.479 0-0.957 0.001-1.435 0.002h0.074c-0.404-0.001-0.882-0.002-1.361-0.002-140.957 0-268.523 57.329-360.655 149.942l-0.021 0.022zM53.895 448c0.291-252.887 205.218-457.814 458.077-458.105h0.029c252.887 0.291 457.814 205.218 458.105 458.077v0.029c-0.307 252.881-205.224 457.799-458.076 458.105h-0.030c-252.881-0.307-457.799-205.224-458.105-458.076v-0.030zM477.507 244.844c-5.659 4.716-15.144 12.962-27.217 23.875-19.995 18.243-39.99 37.726-58.799 58.045-18.712 19.869-36.348 41.345-52.473 63.971l-1.26 1.861c-23.487 29.649-38.604 66.891-41.253 107.534l-0.030 0.579c-0.061 1.485-0.095 3.228-0.095 4.979 0 36.38 14.879 69.284 38.884 92.96l0.015 0.015c23.922 23.43 56.709 37.889 92.873 37.889 31.896 0 61.164-11.247 84.056-29.991l-0.235 0.187c22.65 18.585 51.924 29.85 83.829 29.85 36.17 0 68.958-14.478 92.886-37.955l-0.021 0.020c23.949-23.7 38.779-56.574 38.779-92.912 0-1.631-0.030-3.255-0.089-4.872l0.007 0.234c-2.606-41.341-17.766-78.703-41.671-108.809l0.307 0.4c-17.371-24.562-35.063-46.102-54.158-66.302l0.264 0.281c-18.863-20.211-38.723-39.801-58.691-58.045-12.045-10.995-21.558-19.133-27.217-23.875-9.215-7.655-21.159-12.31-34.189-12.342h-0.007c-0.022 0-0.047 0-0.073 0-13.127 0-25.158 4.693-34.506 12.493l0.086-0.070zM373.113 560.317c-14.2-13.979-22.999-33.41-22.999-54.896 0-1.335 0.034-2.662 0.101-3.98l-0.008 0.185c-1.078-80.384 161.684-215.229 161.684-215.229s162.681 134.737 161.684 215.283c0.059 1.126 0.093 2.445 0.093 3.772 0 21.483-8.833 40.902-23.065 54.825l-0.014 0.014c-14.249 14.037-33.821 22.705-55.417 22.705s-41.169-8.668-55.427-22.714l0.010 0.010-27.837-27.54-27.837 27.54c-14.253 13.996-33.808 22.636-55.38 22.636-0.027 0-0.055 0-0.082 0h0.004c-0.041 0-0.089 0-0.137 0-21.566 0-41.116-8.628-55.388-22.622l0.013 0.013z" />
<glyph unicode="wishlist-full" glyph-name="wishlist-full" horiz-adv-x="1092" d="M702.080 27.763c-30.519-27.788-54.621-48.476-68.959-60.424-23.453-19.54-53.901-31.402-87.12-31.402s-63.667 11.862-87.34 31.58l0.22-0.179c-14.338 11.948-38.371 32.772-68.959 60.492-50.524 46.223-101.253 95.586-148.841 147.066-47.474 50.334-92.161 104.75-132.976 162.112l-3.166 4.685c-59.654 75.104-98.075 169.487-104.862 272.512l-0.078 1.478c-0.151 3.73-0.236 8.108-0.236 12.506 0 92.208 37.696 175.611 98.518 235.641l0.036 0.035c60.612 59.432 143.722 96.112 235.398 96.112 80.868 0 155.071-28.541 213.083-76.1l-0.592 0.471c57.393 47.106 131.578 75.661 212.433 75.661 91.658 0 174.745-36.695 235.372-96.195l-0.052 0.051c60.679-60.026 98.255-143.301 98.255-235.352 0-4.152-0.076-8.286-0.228-12.4l0.017 0.594c-6.502-104.728-44.852-199.404-105.376-275.689l0.778 1.016c-43.99-62.234-88.817-116.811-137.211-167.979l0.66 0.703c-47.793-51.207-98.181-100.843-148.841-147.066z" />
<glyph unicode="wishlist" glyph-name="wishlist" d="M925.44 348.8c-41.294-58.332-83.311-109.489-128.64-157.484l0.64 0.684c-44.8-48-91.968-94.528-139.392-137.856-28.608-26.048-51.2-45.44-64.64-56.64-21.984-18.317-50.526-29.435-81.664-29.435s-59.68 11.119-81.871 29.603l0.207-0.167c-13.44 11.2-36.032 30.72-64.64 56.704-47.488 43.328-94.976 89.6-139.648 137.856-44.419 47.184-86.285 98.189-124.56 151.929l-2.992 4.423c-55.855 70.419-91.823 158.889-98.167 255.448l-0.073 1.384c-0.141 3.496-0.222 7.6-0.222 11.723 0 86.433 35.335 164.614 92.348 220.884l0.034 0.033c56.817 55.71 134.721 90.093 220.656 90.093 75.804 0 145.359-26.754 199.739-71.334l-0.555 0.442c53.798 44.156 123.338 70.923 199.129 70.923 85.918 0 163.801-34.397 220.632-90.171l-0.049 0.048c56.879-56.267 92.101-134.327 92.101-220.613 0-3.892-0.072-7.767-0.214-11.624l0.016 0.557c-6.18-98.186-42.188-186.923-98.967-258.421l0.727 0.949zM841.152 746.752c-33.847 33.323-80.329 53.898-131.616 53.898s-97.768-20.575-131.64-53.922l0.024 0.024-65.92-65.408-66.304 65.408c-33.945 33.237-80.466 53.747-131.776 53.747s-97.83-20.51-131.809-53.779l0.033 0.032c-33.581-33.178-54.378-79.229-54.378-130.138 0-3.255 0.085-6.49 0.253-9.704l-0.019 0.449c-2.816-190.912 384-511.36 384-511.36s386.368 320 384 511.36c0.14 2.675 0.22 5.807 0.22 8.958 0 51.021-20.978 97.143-54.779 130.21l-0.033 0.032z" />
<glyph unicode="warning" glyph-name="warning" d="M0 448.064c0.291 282.653 229.347 511.709 511.972 512h0.028c282.653-0.291 511.709-229.347 512-511.972v-0.028c-0.364-282.623-229.377-511.636-511.965-512h-0.035c-282.623 0.364-511.636 229.377-512 511.965v0.035zM128 448.064c0.255-211.975 172.025-383.745 383.975-384h0.025c211.975 0.255 383.745 172.025 384 383.975v0.025c-0.291 211.96-172.040 383.709-383.972 384h-0.028c-211.96-0.291-383.709-172.040-384-383.972v-0.028zM448 192.064v128h128v-128zM448 384.064v320h128v-320z" />
<glyph unicode="user-round" glyph-name="user-round" d="M149.962 85.962c-92.635 92.146-149.964 219.705-149.964 360.655 0 0.486 0.001 0.972 0.002 1.458v-0.075c-0.001 0.404-0.002 0.882-0.002 1.361 0 140.957 57.329 268.523 149.942 360.655l0.022 0.021c92.154 92.635 219.72 149.964 360.677 149.964 0.479 0 0.957-0.001 1.435-0.002h-0.074c0.404 0.001 0.882 0.002 1.361 0.002 140.957 0 268.523-57.329 360.655-149.942l0.021-0.022c92.635-92.154 149.964-219.72 149.964-360.677 0-0.479-0.001-0.957-0.002-1.435v0.074c0.001-0.407 0.002-0.89 0.002-1.372 0-140.953-57.329-268.516-149.942-360.644l-0.022-0.022c-92.154-92.635-219.72-149.964-360.677-149.964-0.479 0-0.957 0.001-1.435 0.002h0.074c-0.404-0.001-0.882-0.002-1.361-0.002-140.957 0-268.523 57.329-360.655 149.942l-0.021 0.022zM53.895 448c0.291-252.887 205.218-457.814 458.077-458.105h0.029c252.887 0.291 457.814 205.218 458.105 458.077v0.029c-0.307 252.881-205.224 457.799-458.076 458.105h-0.030c-252.881-0.307-457.799-205.224-458.105-458.076v-0.030zM646.737 259.368c0 74.413-60.324 134.737-134.737 134.737v0c-74.413 0-134.737-60.324-134.737-134.737v0c0-14.883-12.065-26.947-26.947-26.947v0c-14.883 0-26.947 12.065-26.947 26.947v0c0 0.036 0 0.078 0 0.12 0 72.124 40.519 134.785 100.035 166.46l1.017 0.494c-28.938 24.804-47.158 61.395-47.158 102.242 0 0.056 0 0.111 0 0.167v-0.009c0 74.413 60.324 134.737 134.737 134.737v0c74.413 0 134.737-60.324 134.737-134.737v0c0-0.043 0-0.094 0-0.145 0-40.851-18.22-77.446-46.977-102.103l-0.181-0.152c60.538-32.218 101.053-94.912 101.053-167.068 0-0.002 0-0.004 0-0.006v0c0-14.883-12.065-26.947-26.947-26.947v0c-14.883 0-26.947 12.065-26.947 26.947v0zM431.158 528.842c0-44.648 36.194-80.842 80.842-80.842v0c44.648 0 80.842 36.194 80.842 80.842v0c0 44.648-36.194 80.842-80.842 80.842v0c-44.648 0-80.842-36.194-80.842-80.842v0z" />
<glyph unicode="twitter" glyph-name="twitter" horiz-adv-x="1280" d="M1280 838.784c-44.010-19.456-95.071-33.81-148.504-40.551l-2.728-0.281c54.126 31.963 94.885 81.667 114.674 140.965l0.526 1.819c-47.934-28.476-103.696-50.181-163.030-61.97l-3.37-0.558c-48.31 50.442-116.206 81.792-191.423 81.792 0 0-0.001 0-0.001 0v0c-0.253 0.001-0.553 0.001-0.853 0.001-144.283 0-261.248-116.965-261.248-261.248 0-19.89 2.223-39.261 6.433-57.878l-0.332 1.748c-218 10.457-410.161 112.889-539.876 269.048l-0.988 1.224c-22.604-37.398-35.979-82.572-35.979-130.87 0-89.563 45.994-168.384 115.65-214.132l0.969-0.598c-43.643 1.24-84.292 12.947-119.871 32.684l1.343-0.684v-2.816c0.897-125.361 90.17-229.614 208.568-253.605l1.672-0.283c-20.032-5.411-43.031-8.52-66.757-8.52-0.718 0-1.436 0.003-2.153 0.009l0.11-0.001c-1.217-0.023-2.652-0.036-4.090-0.036-16.126 0-31.873 1.621-47.087 4.708l1.513-0.256c35.739-103.836 131.545-177.562 244.9-179.963l0.284-0.005c-88.787-68.714-201.714-110.145-324.319-110.145-0.44 0-0.879 0.001-1.318 0.002h0.069c-0.891-0.006-1.944-0.009-2.998-0.009-21.071 0-41.837 1.306-62.222 3.84l2.436-0.247c113.247-72.75 251.48-115.973 399.807-115.973 0.968 0 1.935 0.002 2.902 0.006h-0.149c3.236-0.051 7.055-0.080 10.88-0.080 406.24 0 735.608 329.127 736 735.275v0.037c0 11.392-0.384 22.464-0.96 33.408 51.907 36.835 95.567 81.33 130.365 132.351l1.155 1.793z" />
</font>
</defs>
</svg>
